[MINI Super-HQ] Tiger Running (2023) เสือเผ่น ๑ [1080p] [NETFLIX] [พากย์ไทย 5.1] [บรรยายไทย + อังกฤษ] [เสียงไทย + ซับไทย] [DOSYAUPLOAD]

0

โหลดหนัง Tiger Running (2023) เสือเผ่น ๑

เรื่องย่อ Tiger Running (2023) เสือเผ่น ๑

เรื่องราวของ “ชีต้าห์” กับ “ครูถ้วย” (แจ๊ส สปุ๊กนิค) 2 หนุ่มที่มีเส้นทางต่างกันสุดขั้ว “ชีต้าห์” เด็กช่างกลจอมซ่าส์ โชคชะตานำพาให้เขาไปเข้าวงการพนันออนไลน์ จนวันนึงต้องถูกทำร้ายสาหัส “ครูถ้วย” ครูหนุ่มแสนซื่อ ผู้พยายามเปิดโปงกลุ่มทุนสีเทา “การเป็นฮีโร่ไม่ได้อยู่ที่เสื้อผ้า แต่อยู่ที่การทำความดีและต้องปกป้องคนดี” เตรียมพบกับกลุ่มเด็กช่างสุดห้าวทรงอย่างแบดกับเรื่องราวมิตรภาพระหว่างเพื่อน ในภาพยนตร์ไทย Comedy แห่งปี รับสงกรานต์ที่คุณจะขำ และซาบซึ้งไปกับพวกเขาที่รวบรวมเหล่าตัวตึงมัลติเวิร์สไว้แน่นจอทั้ง ‘ติช่า กันติชา’ ‘นิกกี้ ณฉัตร’ ‘นิก คุณาธิป’ ‘รดา ดุษยารินทร์’ และ ‘โดม เพชรธํารงชัย’ ‘ป้ารัตนา และ หมอปลาแฟมิลี่’ ‘เปิ้ล ไอริณ’ ‘หลุยส์ ชวนชื่น’ ‘แพรรี่ ไพรวัลย์’ ‘ชิน ชินวุฒ’ ‘ปราง ปรางทิพย์’ และอีกมากมายใน “เสือเผ่น ๑” 6 เมษาฮาเต็มคาราเบลในโรงภาพยนตร์

Complete name : [MINI Super-HQ]_Tiger.Running.2023.1080p.NF.WEB-DL.EAC3.x264.One2loadup.com.mkv
Format : Matroska
Format version : Version 4
File size : 4.16 GiB
Duration : 1 h 45 min
Overall bit rate mode : Variable
Overall bit rate : 5 633 kb/s
Movie name : [MINI Super-HQ]_Tiger.Running.2023.1080p.NF.WEB-DL.EAC3.x264.One2loadup.com
Encoded date : UTC 2023-08-31 01:52:40
Writing application : mkvmerge v79.0 (‘Funeral Pyres’) 64-bit
Writing library : libebml v1.4.4 + libmatroska v1.7.1

Video
ID : 1
Format : AVC
Format/Info : Advanced Video Codec
Format profile : Main@L4
Format settings : CABAC / 3 Ref Frames
Format settings, CABAC : Yes
Format settings, Reference : 3 frames
Codec ID : V_MPEG4/ISO/AVC
Duration : 1 h 45 min
Bit rate mode : Variable
Bit rate : 5 000 kb/s
Maximum bit rate : 7 500 kb/s
Width : 1 920 pixels
Height : 1 080 pixels
Display aspect ratio : 16:9
Frame rate mode : Constant
Frame rate : 25.000 FPS
Color space : YUV
Chroma subsampling : 4:2:0
Bit depth : 8 bits
Scan type : Progressive
Bits/(Pixel*Frame) : 0.096
Stream size : 3.68 GiB (89%)
Title : [MINI Super-HQ]_Tiger.Running.2023.1080p.NF.WEB-DL.EAC3.x264.One2loadup.com
Writing library : x264 core 148 r2727 7d026e8
Encoding settings : cabac=1 / ref=3 / deblock=1:0:0 / analyse=0x1:0x111 / me=umh / subme=10 / psy=1 / psy_rd=1.00:0.00 / mixed_ref=1 / me_range=24 / chroma_me=1 / trellis=2 / 8x8dct=0 / cqm=0 / deadzone=21,11 / fast_pskip=1 / chroma_qp_offset=-2 / threads=6 / lookahead_threads=1 / sliced_threads=0 / nr=0 / decimate=1 / interlaced=0 / bluray_compat=0 / stitchable=1 / constrained_intra=0 / bframes=2 / b_pyramid=0 / b_adapt=2 / b_bias=0 / direct=3 / weightb=1 / open_gop=0 / weightp=2 / keyint=250 / keyint_min=126 / scenecut=0 / intra_refresh=0 / rc_lookahead=50 / rc=2pass / mbtree=1 / bitrate=5000 / ratetol=1.0 / qcomp=0.50 / qpmin=6 / qpmax=51 / qpstep=4 / cplxblur=20.0 / qblur=0.5 / vbv_maxrate=7500 / vbv_bufsize=10000 / nal_hrd=vbr / filler=0 / ip_ratio=1.40 / aq=1:1.00
Default : Yes
Forced : No

Audio
ID : 2
Format : E-AC-3
Format/Info : Enhanced AC-3
Commercial name : Dolby Digital Plus
Codec ID : A_EAC3
Duration : 1 h 45 min
Bit rate mode : Constant
Bit rate : 640 kb/s
Channel(s) : 6 channels
Channel layout : L R C LFE Ls Rs
Sampling rate : 48.0 kHz
Frame rate : 31.250 FPS (1536 SPF)
Compression mode : Lossy
Stream size : 483 MiB (11%)
Language : Thai
Service kind : Complete Main
Default : Yes
Forced : No

Text #1
ID : 3
Format : UTF-8
Codec ID : S_TEXT/UTF8
Codec ID/Info : UTF-8 Plain Text
Duration : 41 min 12 s
Bit rate : 1 b/s
Count of elements : 11
Stream size : 615 Bytes (0%)
Title : Forced
Language : Thai
Default : Yes
Forced : Yes

Text #2
ID : 4
Format : UTF-8
Codec ID : S_TEXT/UTF8
Codec ID/Info : UTF-8 Plain Text
Duration : 1 h 45 min
Bit rate : 214 b/s
Count of elements : 2594
Stream size : 165 KiB (0%)
Title : SDH
Language : Thai
Default : No
Forced : No

Text #3
ID : 5
Format : UTF-8
Codec ID : S_TEXT/UTF8
Codec ID/Info : UTF-8 Plain Text
Duration : 1 h 45 min
Bit rate : 68 b/s
Count of elements : 2275
Stream size : 52.6 KiB (0%)
Language : English
Default : No
Forced : No

Menu
00:00:00.000 : en:Part 01
01:45:33.450 : en:Credits

DOWNLOAD


PART01 |||| PART02 |||| PART03 |||| PART04 |||| PART05

PART01 |||| PART02 |||| PART03 |||| PART04 |||| PART05

PART01 |||| PART02 |||| PART03 |||| PART04 |||| PART05

PART01 |||| PART02 |||| PART03 |||| PART04 |||| PART05

PART01 |||| PART02 |||| PART03 |||| PART04 |||| PART05


Leave A Reply

อีเมล์ของคุณจะไม่แสดงให้เห็น Your email address will not be published.

%d bloggers like this: