[MINI Super-HQ] There’s Someone Inside Your House (2021) ใครอยู่ในบ้าน [1080p] [NETFLIX] [พากย์ไทย 5.1 + เสียงอังกฤษ 5.1] [บรรยายไทย + อังกฤษ] [เสียงไทย + ซับไทย] [DOSYAUPLOAD]

0

โหลดหนัง There’s Someone Inside Your House (2021) ใครอยู่ในบ้าน

There's Someone Inside Your House 96min | Horror, Thriller | October 6, 2021 (United States) Summary: The graduating class at Osborne High is being targeted by a masked assailant, intent on exposing the darkest secret of each victim, and only a group of misfit outsiders can stop the killings... Read all
Countries: Canada, United StatesLanguages: English

เรื่องย่อ There’s Someone Inside Your House (2021) ใครอยู่ในบ้าน

มาคานี่และเพื่อนๆ ที่โรงเรียนออสบอร์นพยายามหาตัวและหยุดยั้งฆาตกรสวมหน้ากากปริศนาที่ไล่เชือดบรรดานักเรียนและเปิดโปงความลับของทุกคน

Complete name : [MINI Super-HQ]_There.s.Someone.Inside.Your.House.2021.1080p.NF.WEB-DL.EAC3.x264.One2loadup.com.mkv
Format : Matroska
Format version : Version 4
File size : 3.28 GiB
Duration : 1 h 36 min
Overall bit rate mode : Variable
Overall bit rate : 4 881 kb/s
Movie name : [MINI Super-HQ]_There.s.Someone.Inside.Your.House.2021.1080p.NF.WEB-DL.EAC3.x264.One2loadup.com
Encoded date : UTC 2021-10-06 08:18:40
Writing application : mkvmerge v17.0.0 (‘Be Ur Friend’) 64-bit
Writing library : libebml v1.3.5 + libmatroska v1.4.8

Video
ID : 1
Format : AVC
Format/Info : Advanced Video Codec
Format profile : [email protected]
Format settings : CABAC / 4 Ref Frames
Format settings, CABAC : Yes
Format settings, Reference : 4 frames
Codec ID : V_MPEG4/ISO/AVC
Duration : 1 h 36 min
Bit rate mode : Variable
Bit rate : 3 984 kb/s
Maximum bit rate : 20.0 Mb/s
Width : 1 920 pixels
Height : 1 080 pixels
Display aspect ratio : 16:9
Frame rate mode : Constant
Frame rate : 24.000 FPS
Color space : YUV
Chroma subsampling : 4:2:0
Bit depth : 8 bits
Scan type : Progressive
Bits/(Pixel*Frame) : 0.080
Stream size : 2.68 GiB (82%)
Title : [MINI Super-HQ]_There.s.Someone.Inside.Your.House.2021.1080p.NF.WEB-DL.EAC3.x264.One2loadup.com
Writing library : x264 core 148 r2722 1b0121b
Encoding settings : cabac=1 / ref=4 / deblock=1:0:0 / analyse=0x3:0x111 / me=umh / subme=10 / psy=1 / psy_rd=1.00:0.00 / mixed_ref=1 / me_range=120 / chroma_me=1 / trellis=2 / 8x8dct=1 / cqm=0 / deadzone=21,11 / fast_pskip=1 / chroma_qp_offset=-2 / threads=8 / lookahead_threads=2 / sliced_threads=0 / nr=0 / decimate=1 / interlaced=0 / bluray_compat=0 / stitchable=1 / constrained_intra=0 / bframes=16 / b_pyramid=2 / b_adapt=2 / b_bias=0 / direct=3 / weightb=1 / open_gop=0 / weightp=2 / keyint=240 / keyint_min=121 / scenecut=0 / intra_refresh=0 / rc_lookahead=240 / rc=crf / mbtree=1 / crf=24.0 / qcomp=0.50 / qpmin=6 / qpmax=51 / qpstep=4 / vbv_maxrate=20000 / vbv_bufsize=25000 / crf_max=0.0 / nal_hrd=vbr / filler=0 / ip_ratio=1.40 / aq=1:0.80
Default : Yes
Forced : No

Audio #1
ID : 2
Format : AAC LC SBR
Format/Info : Advanced Audio Codec Low Complexity with Spectral Band Replication
Commercial name : HE-AAC
Format settings : Explicit
Codec ID : A_AAC-2
Duration : 1 h 36 min
Bit rate : 128 kb/s
Channel(s) : 2 channels
Channel layout : L R
Sampling rate : 48.0 kHz
Frame rate : 23.438 FPS (2048 SPF)
Compression mode : Lossy
Stream size : 88.1 MiB (3%)
Language : Thai
Default : Yes
Forced : No

Audio #2
ID : 3
Format : E-AC-3 JOC
Format/Info : Enhanced AC-3 with Joint Object Coding
Commercial name : Dolby Digital Plus with Dolby Atmos
Codec ID : A_EAC3
Duration : 1 h 36 min
Bit rate mode : Constant
Bit rate : 768 kb/s
Channel(s) : 6 channels
Channel layout : L R C LFE Ls Rs
Sampling rate : 48.0 kHz
Frame rate : 31.250 FPS (1536 SPF)
Compression mode : Lossy
Stream size : 529 MiB (16%)
Language : English
Service kind : Complete Main
Default : No
Forced : No
Complexity index : 16
Number of dynamic objects : 15
Bed channel count : 1 channel
Bed channel configuration : LFE

Text
ID : 4
Format : S_TEXT/WEBVTT
Codec ID : S_TEXT/WEBVTT
Duration : 1 h 33 min
Bit rate : 327 b/s
Count of elements : 1059
Stream size : 224 KiB (0%)
Title : thai
Language : Thai
Default : Yes
Forced : No

DOWNLOAD


PART01 |||| PART02 |||| PART03 |||| PART04

PART01 |||| PART02 |||| PART03 |||| PART04

PART01 |||| PART02 |||| PART03 |||| PART04

PART01 |||| PART02 |||| PART03 |||| PART04

PART01 |||| PART02 |||| PART03 |||| PART04


Leave A Reply

อีเมล์ของคุณจะไม่แสดงให้เห็น Your email address will not be published.

%d bloggers like this: