[MINI Super-HQ] The Suicide Squad (2021) เดอะ ซุยไซด์ สควอด [1080p] [พากย์อังกฤษ 5.1] [Soundtrack บรรยายไทย + อังกฤษ] [เสียงอังกฤษ + ซับไทย] [DOSYAUPLOAD]

0

โหลดหนัง The Suicide Squad (2021) เดอะ ซุยไซด์ สควอด

The Suicide Squad 132min | Action, Adventure, Comedy, Sci-Fi | August 5, 2021 (United States) Summary: Supervillains Harley Quinn, Bloodsport, Peacemaker and a collection of nutty cons at Belle Reve prison join the super-secret, super-shady Task Force X as they are dropped off at the remote, ... Read all
Countries: United States, Canada, United KingdomLanguages: English

เรื่องย่อ The Suicide Squad (2021) เดอะ ซุยไซด์ สควอด

ยินดีต้อนรับสู่นรก หรือเรียกอีกชื่อว่า เบลรีฟ คุกที่มีอัตราการตายของนักโทษสูงที่สุดใน สหรัฐ แห่ง อเมริกา ที่ ๆ สุดยอดวายร้ายถูกคุมขังเอาไว้ และพวกมันก็พยายามทำทุกอย่างเพื่อจะออกมาให้ได้ แม้ว่าจะต้องเข้าร่วมหน่วยงานลับสุดยอดหน่วยที่ซ่อนไว้ในเงามืดอย่าง Task Force X เพื่อปฏิบัติภารกิจที่ไม่ทำก็ตาย รวบรวมเอาเหล่าวายร้ายทั้ง Bloodsport, Peacemaker, Captain Boomerang, Ratcatcher 2, Savant, King Shark, Blackguard, Javelin และยัยโรคจิตที่ทุกคนชื่นชอบ ฮาร์ลีย์ ควินน์ หลังจากนั้นก็โยนอาวุธให้พวกมัน โยนพวกมันลงไปบนเกาะของอาชญากรสุดชั่วร้าย Corto Maltese เดินฝ่าเข้าไปในป่าที่เต็มไปด้วยศัตรู รายล้อมด้วยกองกำลังในทุก ๆ พุ่มไม้ ทีมวายร้ายนี้จะต้องเข้าไปค้นหาและสังหารเป้าหมาย คุมโดยผู้พัน ริก แฟล็ค ให้พวกมันยังอยู่กับร่องกับรอย โดย Amanda Waller เจ้าหน้าที่ผู้คุมของ Task Force X จะคอยจับตาดูพวกมันในทุกย่างก้าว และถ้าพวกมันก้าวผิดเพียงก้าวเดียว พวกมันก็ตาย (ไม่ว่าจะด้วยฝีมือของศัตรู, ฝีมือของเพื่อนร่วมทีม หรือตายด้วยมือของ อแมนด้า วอลเลอร์เอง) ถ้าใครจะวางเงินเดิมพันล่ะก็ ทางที่ดีก็วางไปในทางตรงข้ามกับพวกเขาซะ ตรงข้ามกับพวกเขาทุกคนเลย

Complete name : [MINI Super-HQ]_The.Suicide.Squad.2021.1080p.HMAX.WEB-DL.EAC3.x264.Subthai.One2loadup.com.mkv
Format : Matroska
Format version : Version 4
File size : 4.37 GiB
Duration : 2 h 12 min
Overall bit rate : 4 734 kb/s
Movie name : [MINI Super-HQ]_The.Suicide.Squad.2021.1080p.HMAX.WEB-DL.EAC3.x264.Subthai.One2loadup.com
Encoded date : UTC 2021-08-06 14:55:19
Writing application : mkvmerge v60.0.0 (‘Are We Copies?’) 64-bit
Writing library : libebml v1.4.2 + libmatroska v1.6.4

Video
ID : 1
Format : AVC
Format/Info : Advanced Video Codec
Format profile : [email protected]
Format settings : CABAC / 3 Ref Frames
Format settings, CABAC : Yes
Format settings, Reference : 3 frames
Codec ID : V_MPEG4/ISO/AVC
Duration : 2 h 12 min
Bit rate : 3 946 kb/s
Width : 1 920 pixels
Height : 1 012 pixels
Display aspect ratio : 1.897
Frame rate mode : Constant
Frame rate : 23.976 (24000/1001) FPS
Color space : YUV
Chroma subsampling : 4:2:0
Bit depth : 8 bits
Scan type : Progressive
Bits/(Pixel*Frame) : 0.085
Stream size : 3.64 GiB (83%)
Title : [MINI Super-HQ]_The.Suicide.Squad.2021.1080p.HMAX.WEB-DL.EAC3.x264.Subthai.One2loadup.com
Language : English
Default : Yes
Forced : No
Color range : Limited
Color primaries : BT.709
Transfer characteristics : BT.709
Matrix coefficients : BT.709

Audio
ID : 2
Format : E-AC-3 JOC
Format/Info : Enhanced AC-3 with Joint Object Coding
Commercial name : Dolby Digital Plus with Dolby Atmos
Codec ID : A_EAC3
Duration : 2 h 12 min
Bit rate mode : Constant
Bit rate : 768 kb/s
Channel(s) : 6 channels
Channel layout : L R C LFE Ls Rs
Sampling rate : 48.0 kHz
Frame rate : 31.250 FPS (1536 SPF)
Compression mode : Lossy
Stream size : 726 MiB (16%)
Title : E-AC3 Atmos English
Language : English
Service kind : Complete Main
Default : Yes
Forced : No
Complexity index : 16
Number of dynamic objects : 15
Bed channel count : 1 channel
Bed channel configuration : LFE

Text #1
ID : 3
Format : VobSub
Muxing mode : zlib
Codec ID : S_VOBSUB
Codec ID/Info : Picture based subtitle format used on DVDs
Duration : 2 h 11 min
Bit rate : 9 201 b/s
Count of elements : 1358
Stream size : 8.65 MiB (0%)
Title : Sub Thai 1080p
Language : Thai
Default : No
Forced : No

Text #2
ID : 4
Format : UTF-8
Codec ID : S_TEXT/UTF8
Codec ID/Info : UTF-8 Plain Text
Duration : 2 h 11 min
Bit rate : 95 b/s
Count of elements : 1358
Stream size : 92.0 KiB (0%)
Title : Sub Thai SRT
Language : Thai
Default : No
Forced : No

Text #3
ID : 5
Format : PGS
Muxing mode : zlib
Codec ID : S_HDMV/PGS
Codec ID/Info : Picture based subtitle format used on BDs/HD-DVDs
Duration : 2 h 11 min
Bit rate : 26.1 kb/s
Count of elements : 2716
Stream size : 24.5 MiB (1%)
Title : Sub Thai PGS
Language : Thai
Default : Yes
Forced : No

Text #4
ID : 6
Format : UTF-8
Codec ID : S_TEXT/UTF8
Codec ID/Info : UTF-8 Plain Text
Duration : 2 h 11 min
Bit rate : 40 b/s
Count of elements : 1482
Stream size : 39.0 KiB (0%)
Title : Sub English SRT
Language : English
Default : No
Forced : No

DOWNLOAD


PART01 |||| PART02 |||| PART03 |||| PART04 |||| PART05

PART01 |||| PART02 |||| PART03 |||| PART04 |||| PART05

PART01 |||| PART02 |||| PART03 |||| PART04 |||| PART05

PART01 |||| PART02 |||| PART03 |||| PART04 |||| PART05

PART01 |||| PART02 |||| PART03 |||| PART04 |||| PART05


Leave A Reply

อีเมล์ของคุณจะไม่แสดงให้เห็น Your email address will not be published.

%d bloggers like this: