[MINI Super-HQ] The Shack (2017) กระท่อมเหนือปาฏิหาริย์ [แก้ไขเสียง] [1080p] [พากย์ไทย 5.1 + เสียงอังกฤษ DTS] [บรรยายไทย + อังกฤษ] [เสียงไทย + ซับไทย] [PANDAFILE]

0

The Shack (2017) กระท่อมเหนือปาฏิหาริย์

โหลดหนัง The Shack (2017) กระท่อมเหนือปาฏิหาริย์

Die Hütte - Ein Wochenende mit Gott (2017) 2h 12min | Drama, Fantasy | 6 April 2017 (Germany) Summary: A grieving man receives a mysterious, personal invitation to meet with God at a place called "The Shack."
Countries: USALanguages: English

เรื่องย่อ The Shack (2017) กระท่อมเหนือปาฏิหาริย์

The Shack ภาพยนตร์สร้างแรงบันดาลใจเรื่องเยี่ยมแห่งปี ดัดแปลงจากนวนิยายยอดขายถล่มทลายทั่วโลกกว่า 22 ล้านเล่มทั่วโลก ถ่ายทอดเรื่องราวของ “แม็ค ฟิลลิปส์” (แซม เวิร์ธทิงตัน) ชายผู้ที่กำลังดำดิ่งสู่ห้วงเวลาที่ต้องทนทุกข์ จากเหตุโศกนาฏกรรมที่ต้องสูญเสียลูกสาวของเขาไปในกระท่อมร้างกลางป่า (หรือ เดอะ แช็ค) พร้อมกับเผชิญกับจุดวิกฤตแห่งศรัทธาที่มีต่อทุกคนรอบข้างไม่เว้นแม้แต่พระเจ้า แต่วันหนึ่งเขาได้รับจดหมายลึกลับเชิญเขากลับไปยังกระท่อมกลางป่าอีกครั้ง ทว่าระหว่างทางเขากลับได้พบกับคนแปลกหน้า 3 คนนำโดยหญิงสาวที่ชื่อว่า “ปาป้า” (ออคตาเวีย สเปนเซอร์) ที่นำทางเขาสู่อีกดินแดนเหนือความคาดฝันที่เต็มไปด้วยสิ่งอัศจรรย์ การเดินทางครั้งนี้จะพลิกชีวิตของแม็คไปตลอดกาลThe Shack ได้นักแสดงสาวผิวสีมากความสามารถ เจ้าของรางวัลออสการ์สาขานักแสดงสมทบหญิงยอดเยี่ยมอย่าง ออคตาเวีย สเปนเซอร์ (จาก The Help และ Hidden Figures) นำทีมนักแสดงจากภาพยนตร์ เดินพรมแดงท่ามกลางสื่อมวลชนและแฟนหนังที่รอให้การต้อนรับกันอย่างเนืองแน่น พร้อมด้วยนักร้องนักแสดงหนุ่มมากฝีมือเจ้าของรางวัลแกรมมี่ อวอร์ดส ทิม แม็คกรอว์ ที่งานนี้ควงคู่มากับภรรยาสุดสวยดีกรีซูเปอร์สตาร์เจ้าของรางวัลแกรมมี่ อวอร์ดส หลายสมัย “เฟธ ฮิลล์” ซึ่งทั้งคู่ร่วมกันร้องเพลงประกอบ “Keep Your Eyes On Me” เป็นเพลงธีมของภาพยนตร์ด้วย นอกจากนี้ ยังมีนักแสดงคุณภาพอีกมากมาย อาทิ ราดาห์ มิทเชล (จาก Man on Fire และ Finding Neverland) ร่วมด้วยนักแสดงและท็อปโมเดลจากแดนอาทิตย์อุทัยอย่าง “ซูมิเระ” และนักแสดงหนุ่มดาวรุ่งอย่าง “อัฟราฮัม อาวีฟ”

Complete name : [MINI Super-HQ]_The.Shack.2017.1080p.BrRip.DTS.x264.v2.One2loadup.com.mkv
Format : Matroska
Format version : Version 4
File size : 4.03 GiB
Duration : 2 h 12 min
Overall bit rate : 4 359 kb/s
Movie name : [MINI Super-HQ]_The.Shack.2017.1080p.BrRip.DTS.x264.v2.One2loadup.com
Encoded date : UTC 2010-02-22 21:41:31
Writing application : mkvmerge v5.9.0 (‘On The Loose’) built on Dec 9 2012 15:37:01
Writing library : libebml v1.3.0 + libmatroska v1.4.0

Video
ID : 1
Format : AVC
Format/Info : Advanced Video Codec
Format profile : [email protected]
Format settings : CABAC / 4 Ref Frames
Format settings, CABAC : Yes
Format settings, ReFrames : 4 frames
Codec ID : V_MPEG4/ISO/AVC
Duration : 2 h 12 min
Bit rate : 3 003 kb/s
Width : 1 920 pixels
Height : 804 pixels
Display aspect ratio : 2.40:1
Frame rate mode : Constant
Frame rate : 23.976 FPS
Color space : YUV
Chroma subsampling : 4:2:0
Bit depth : 8 bits
Scan type : Progressive
Bits/(Pixel*Frame) : 0.081
Stream size : 2.84 GiB (70%)
Title : [MINI Super-HQ]_The.Shack.2017.1080p.BrRip.DTS.x264.v2.One2loadup.com
Writing library : x264 core 130 r2273 b3065e6
Encoding settings : cabac=1 / ref=3 / deblock=1:0:0 / analyse=0x3:0x113 / me=umh / subme=11 / psy=1 / psy_rd=1.00:0.00 / mixed_ref=1 / me_range=48 / chroma_me=1 / trellis=2 / 8x8dct=1 / cqm=0 / deadzone=21,11 / fast_pskip=1 / chroma_qp_offset=-2 / threads=24 / lookahead_threads=2 / sliced_threads=0 / nr=0 / decimate=1 / interlaced=0 / bluray_compat=0 / constrained_intra=0 / bframes=3 / b_pyramid=2 / b_adapt=1 / b_bias=0 / direct=1 / weightb=1 / open_gop=0 / weightp=2 / keyint=240 / keyint_min=24 / scenecut=40 / intra_refresh=0 / rc_lookahead=40 / rc=2pass / mbtree=1 / bitrate=3003 / ratetol=1.0 / qcomp=0.60 / qpmin=0 / qpmax=69 / qpstep=4 / cplxblur=20.0 / qblur=0.5 / ip_ratio=1.40 / aq=1:1.00
Language : English
Default : Yes
Forced : No
Color range : Limited
Color primaries : BT.709
Transfer characteristics : BT.709
Matrix coefficients : BT.709

Audio #1
ID : 2
Format : AC-3
Format/Info : Audio Coding 3
Commercial name : Dolby Digital
Codec ID : A_AC3
Duration : 2 h 12 min
Bit rate mode : Constant
Bit rate : 448 kb/s
Channel(s) : 6 channels
Channel layout : L R C LFE Ls Rs
Sampling rate : 48.0 kHz
Frame rate : 31.250 FPS (1536 SPF)
Bit depth : 16 bits
Compression mode : Lossy
Stream size : 424 MiB (10%)
Title : Thai DVD Master
Language : Thai
Service kind : Complete Main
Default : Yes
Forced : Yes

Audio #2
ID : 3
Format : DTS
Format/Info : Digital Theater Systems
Codec ID : A_DTS
Duration : 2 h 12 min
Bit rate mode : Constant
Bit rate : 755 kb/s
Channel(s) : 6 channels
Channel layout : C L R Ls Rs LFE
Sampling rate : 48.0 kHz
Frame rate : 93.750 FPS (512 SPF)
Bit depth : 24 bits
Compression mode : Lossy
Stream size : 714 MiB (17%)
Title : English DTS
Language : English
Default : No
Forced : No

Text #1
ID : 4
Format : VobSub
Codec ID : S_VOBSUB
Codec ID/Info : Picture based subtitle format used on DVDs
Title : Thai 480p From DVD Master
Language : Thai
Default : No
Forced : No

Text #2
ID : 5
Format : VobSub
Codec ID : S_VOBSUB
Codec ID/Info : Picture based subtitle format used on DVDs
Title : Thai 1080p
Language : Thai
Default : Yes
Forced : Yes

Text #3
ID : 6
Format : VobSub
Codec ID : S_VOBSUB
Codec ID/Info : Picture based subtitle format used on DVDs
Title : Thai 1080p Yellow
Language : Thai
Default : No
Forced : No

Text #4
ID : 7
Format : VobSub
Codec ID : S_VOBSUB
Codec ID/Info : Picture based subtitle format used on DVDs
Title : Thai 1080p Out
Language : Thai
Default : No
Forced : No

Text #5
ID : 8
Format : VobSub
Codec ID : S_VOBSUB
Codec ID/Info : Picture based subtitle format used on DVDs
Title : Thai 1080p BIG
Language : Thai
Default : No
Forced : No

Text #6
ID : 9
Format : VobSub
Codec ID : S_VOBSUB
Codec ID/Info : Picture based subtitle format used on DVDs
Title : Thai 1080p Out [BIG]
Language : Thai
Default : No
Forced : No

Text #7
ID : 10
Format : PGS
Codec ID : S_HDMV/PGS
Codec ID/Info : Picture based subtitle format used on BDs/HD-DVDs
Title : Thai PGS
Language : Thai
Default : No
Forced : No

Text #8
ID : 11
Format : PGS
Codec ID : S_HDMV/PGS
Codec ID/Info : Picture based subtitle format used on BDs/HD-DVDs
Title : Thai PGS Yellow
Language : Thai
Default : No
Forced : No

Text #9
ID : 12
Format : PGS
Codec ID : S_HDMV/PGS
Codec ID/Info : Picture based subtitle format used on BDs/HD-DVDs
Title : Thai PGS Out
Language : Thai
Default : No
Forced : No

Text #10
ID : 13
Format : PGS
Codec ID : S_HDMV/PGS
Codec ID/Info : Picture based subtitle format used on BDs/HD-DVDs
Title : English
Language : English
Default : No
Forced : No

Menu
00:00:00.000 : en:Chapter 1
00:07:22.692 : en:Chapter 2
00:16:39.248 : en:Chapter 3
00:23:16.270 : en:Chapter 4
00:29:36.984 : en:Chapter 5
00:38:08.453 : en:Chapter 6
00:47:40.316 : en:Chapter 7
00:55:38.377 : en:Chapter 8
01:02:45.053 : en:Chapter 9
01:11:19.484 : en:Chapter 10
01:18:44.470 : en:Chapter 11
01:33:07.540 : en:Chapter 12
01:40:49.669 : en:Chapter 13
01:48:13.570 : en:Chapter 14
01:55:12.823 : en:Chapter 15
02:03:10.300 : en:Chapter 16

DOWNLOAD


PART01 |||| PART02 |||| PART03 |||| PART04 |||| PART05

PART01 |||| PART02 |||| PART03 |||| PART04 |||| PART05

PART01 |||| PART02 |||| PART03 |||| PART04 |||| PART05

PART01 |||| PART02 |||| PART03 |||| PART04 |||| PART05


Leave A Reply

Your email address will not be published.

%d bloggers like this: