[MINI Super-HQ] The Seven Deadly Sins: Cursed By Light (2021) ศึกตํานาน 7 อัศวิน: สาปแห่งแสง [1080p] [NETFLIX] [พากย์ไทย 5.1 + เสียงญี่ปุ่น 5.1] [บรรยายไทย + อังกฤษ] [เสียงไทย + ซับไทย] [DOSYAUPLOAD]

0

โหลดหนัง The Seven Deadly Sins: Cursed By Light (2021) ศึกตํานาน 7 อัศวิน: สาปแห่งแสง

The Seven Deadly Sins: Cursed by Light Animation, Action, Fantasy | October 1, 2021 (United States) Summary: Meliodas and his friends jump back into action when the new era of peace is threatened by a powerful magical alliance that could spell the end for all.
Countries: JapanLanguages: Japanese

เรื่องย่อ The Seven Deadly Sins: Cursed By Light (2021) ศึกตํานาน 7 อัศวิน: สาปแห่งแสง

เมื่อความสงบสุขถูกทำลาย เมลิโอดาสและเอลิซาเบธจึงลุกขึ้นมาจับอาวุธอีกครั้งเพื่อเผชิญหน้ากับกลุ่มอำนาจชั่วร้ายซึ่งมีเวทมนตร์ที่พร้อมทำลายโลกทั้งใบ

Complete name : [MINI Super-HQ]_The.Seven.Deadly.Sins.Cursed.by.Light.2021.1080p.NF.WEB-DL.EAC3.x264.One2loadup.com.mkv
Format : Matroska
Format version : Version 4
File size : 4.25 GiB
Duration : 1 h 20 min
Overall bit rate : 7 543 kb/s
Movie name : [MINI Super-HQ]_The.Seven.Deadly.Sins.Cursed.by.Light.2021.1080p.NF.WEB-DL.EAC3.x264.One2loadup.com
Encoded date : UTC 2022-01-26 07:46:18
Writing application : mkvmerge v64.0.0 (‘Willows’) 64-bit
Writing library : libebml v1.4.2 + libmatroska v1.6.4

Video
ID : 1
Format : AVC
Format/Info : Advanced Video Codec
Format profile : [email protected]
Format settings : CABAC / 3 Ref Frames
Format settings, CABAC : Yes
Format settings, Reference : 3 frames
Codec ID : V_MPEG4/ISO/AVC
Duration : 1 h 20 min
Bit rate : 6 183 kb/s
Width : 1 920 pixels
Height : 1 080 pixels
Display aspect ratio : 16:9
Frame rate mode : Constant
Frame rate : 23.976 (24000/1001) FPS
Color space : YUV
Chroma subsampling : 4:2:0
Bit depth : 8 bits
Scan type : Progressive
Bits/(Pixel*Frame) : 0.124
Stream size : 3.48 GiB (82%)
Title : [MINI Super-HQ]_The.Seven.Deadly.Sins.Cursed.by.Light.2021.1080p.NF.WEB-DL.EAC3.x264.One2loadup.com
Language : Japanese
Default : Yes
Forced : No

Audio #1
ID : 2
Format : E-AC-3
Format/Info : Enhanced AC-3
Commercial name : Dolby Digital Plus
Codec ID : A_EAC3
Duration : 1 h 20 min
Bit rate mode : Constant
Bit rate : 640 kb/s
Channel(s) : 6 channels
Channel layout : L R C LFE Ls Rs
Sampling rate : 48.0 kHz
Frame rate : 31.250 FPS (1536 SPF)
Compression mode : Lossy
Stream size : 369 MiB (8%)
Title : E-AC3 Japanese
Language : Japanese
Service kind : Complete Main
Default : No
Forced : No

Audio #2
ID : 3
Format : E-AC-3
Format/Info : Enhanced AC-3
Commercial name : Dolby Digital Plus
Codec ID : A_EAC3
Duration : 1 h 20 min
Bit rate mode : Constant
Bit rate : 640 kb/s
Channel(s) : 6 channels
Channel layout : L R C LFE Ls Rs
Sampling rate : 48.0 kHz
Frame rate : 31.250 FPS (1536 SPF)
Compression mode : Lossy
Stream size : 369 MiB (8%)
Title : E-AC3 Thai
Language : Thai
Service kind : Complete Main
Default : Yes
Forced : No

Text #1
ID : 4
Format : VobSub
Muxing mode : zlib
Codec ID : S_VOBSUB
Codec ID/Info : Picture based subtitle format used on DVDs
Duration : 1 h 19 min
Bit rate : 15.0 kb/s
Count of elements : 1102
Stream size : 8.50 MiB (0%)
Title : Sub Thai 1080p
Language : Thai
Default : No
Forced : No

Text #2
ID : 5
Format : UTF-8
Codec ID : S_TEXT/UTF8
Codec ID/Info : UTF-8 Plain Text
Duration : 1 h 19 min
Bit rate : 157 b/s
Count of elements : 1102
Stream size : 91.6 KiB (0%)
Title : Sub Thai SRT
Language : Thai
Default : No
Forced : No

Text #3
ID : 6
Format : PGS
Muxing mode : zlib
Codec ID : S_HDMV/PGS
Codec ID/Info : Picture based subtitle format used on BDs/HD-DVDs
Duration : 1 h 19 min
Bit rate : 42.1 kb/s
Count of elements : 2204
Stream size : 23.8 MiB (1%)
Title : Sub Thai PGS
Language : Thai
Default : No
Forced : No

Text #4
ID : 7
Format : PGS
Muxing mode : zlib
Codec ID : S_HDMV/PGS
Codec ID/Info : Picture based subtitle format used on BDs/HD-DVDs
Duration : 1 h 19 min
Bit rate : 73.3 kb/s
Count of elements : 2204
Stream size : 41.5 MiB (1%)
Title : Sub Thai PGS NETFLIX
Language : Thai
Default : Yes
Forced : No

Text #5
ID : 8
Format : UTF-8
Codec ID : S_TEXT/UTF8
Codec ID/Info : UTF-8 Plain Text
Duration : 1 h 19 min
Bit rate : 53 b/s
Count of elements : 1101
Stream size : 30.8 KiB (0%)
Title : Sub English SRT
Language : English
Default : No
Forced : No

DOWNLOAD


PART01 |||| PART02 |||| PART03 |||| PART04 |||| PART05

PART01 |||| PART02 |||| PART03 |||| PART04 |||| PART05

PART01 |||| PART02 |||| PART03 |||| PART04 |||| PART05

PART01 |||| PART02 |||| PART03 |||| PART04 |||| PART05

PART01 |||| PART02 |||| PART03 |||| PART04 |||| PART05


Leave A Reply

อีเมล์ของคุณจะไม่แสดงให้เห็น Your email address will not be published.

%d bloggers like this: