[MINI Super-HQ] The Punisher (2004) เพชฌฆาตมหากาฬ ภาค 1 [1080p] [พากษ์ไทย 5.1 + เสียงอังกฤษ DTS] [บรรยายไทย + อังกฤษ] [เสียงไทย + ซับไทย] [OPENLOAD]

0

The Punisher (2004)

โหลดหนัง The Punisher (2004) เพชฌฆาตมหากาฬ ภาค 1

The Punisher (2004) 2h 4min | Action, Crime, Drama | 23 September 2004 (Netherlands) Summary: An undercover FBI agent becomes a vigilante assassin and sets out to unleash his wrath upon the corrupt businessman who slaughtered his entire family at a reunion.
Countries: USA, GermanyLanguages: English

เรื่องย่อ The Punisher (2004) เพชฌฆาตมหากาฬ ภาค 1

แฟรงค์ คาสเซิล (โทมัส เจน) ชีวิตเขาเห็นการตายมานับครั้งไม่ถ้วน ในฐานะที่เขาอยู่ในหน่วยเดลต้า และต่อมาในฐานะของเจ้าหน้าที่พิเศษเอฟบีไอ เมื่อภารกิจครั้งสำคัญในการเป็นสายลับ เพื่อสืบหาต้นตอของแหล่งยาเสพติดรายใหญ่สำเร็จ เขาอยากล้างมือ และหันไปใช้ชีวิตแบบคนธรรมดาสามัญ อยู่กับภรรยาและลูก แต่เหตุการณ์กลับไม่ราบรื่นอย่างที่คิด งานสุดท้ายที่เขาได้รับมอบหมาย เมื่องานชิ้นสุดท้ายที่ได้รับยุ่งยากเกินการควบคุม แม้แคสเซิลเล่นเป็นสายลับได้อย่างสมบูรณ์แบบ เหตุการณ์กลับพลิกผัน ชายหนุ่มที่เขาได้ลงมือสังหาร กลับกลายเป็นลูกชายหัวแก้วหัวแหวน ของมาเฟียผู้ทรงอำนาจ โฮวาร์ด เซนต์ (จอห์น ทราโวลต้า) และภรรยาแสนสวยชื่อ ลิเวีย (ลอร่า เอเลน่า แฮริ่ง) แม้ฉากหน้าจะมีสถานภาพทางสังคมสวยหรู แต่ครอบครัวเดอะเซนต์ หาใช่ผู้ดีจริงไม่ เบื้องหลังความร่ำรวย คือแก๊งอาชญากรรมป่าเถื่อน เย็นชา และโหดร้าย ฝันร้ายของแคสเซิลเริ่มเป็นจริงและน่ากลัวยิ่งขึ้น เมื่อโฮวาร์ด เซนต์ และลูกน้อง ฆ่าครอบครัว ญาติพี่น้องของเขาตายเรียบ มีเพียงเขาเท่านั้นที่รอดมาได้ เขาจึงกบดานเพื่อรอเวลาชำระหนี้แค้น หลังจากเหตุการณ์คราวนั้น เขาตั้งตัวเองเป็นศาลเตี้ยที่จะตัดสิน “มัน” ที่ทำให้เขาต้องกลายเป็นผู้ผิด ปฏิบัติการล้างแค้นสุดหฤโหด ในการออกตามล่าเหล่าทรชน เพื่อนำตัวมาตัดสินชะตากรรมด้วยตัวของเขาเอง …จึงได้อุบัติขึ้น!!

Complete name : [MINI Super-HQ]_The.Punisher.2004.1080p.BrRip.DTS.x264.One2loadup.com.mkv
Format : Matroska
Format version : Version 4
File size : 4.27 GiB
Duration : 2 h 3 min
Overall bit rate : 4 945 kb/s
Movie name : [MINI Super-HQ]_The.Punisher.2004.1080p.BrRip.DTS.x264.One2loadup.com
Encoded date : UTC 2015-07-09 13:11:17
Writing application : mkvmerge v7.8.0 (‘River Man’) 32bit built on Mar 27 2015 16:18:02
Writing library : libebml v1.3.1 + libmatroska v1.4.2

Video
ID : 1
Format : AVC
Format/Info : Advanced Video Codec
Format profile : [email protected]
Format settings : CABAC / 5 Ref Frames
Format settings, CABAC : Yes
Format settings, ReFrames : 5 frames
Codec ID : V_MPEG4/ISO/AVC
Duration : 2 h 3 min
Bit rate : 3 649 kb/s
Width : 1 920 pixels
Height : 816 pixels
Display aspect ratio : 2.35:1
Frame rate mode : Constant
Frame rate : 23.976 (24000/1001) FPS
Color space : YUV
Chroma subsampling : 4:2:0
Bit depth : 8 bits
Scan type : Progressive
Bits/(Pixel*Frame) : 0.097
Stream size : 3.14 GiB (74%)
Title : [MINI Super-HQ]_The.Punisher.2004.1080p.BrRip.DTS.x264.One2loadup.com
Writing library : x264 core 146 r2538 121396c
Encoding settings : cabac=1 / ref=5 / deblock=1:-1:-1 / analyse=0x3:0x113 / me=umh / subme=11 / psy=1 / psy_rd=1.00:0.20 / mixed_ref=1 / me_range=48 / chroma_me=1 / trellis=2 / 8x8dct=1 / cqm=0 / deadzone=21,11 / fast_pskip=0 / chroma_qp_offset=-3 / threads=24 / lookahead_threads=2 / sliced_threads=0 / nr=0 / decimate=1 / interlaced=0 / bluray_compat=0 / constrained_intra=0 / bframes=5 / b_pyramid=2 / b_adapt=2 / b_bias=0 / direct=3 / weightb=1 / open_gop=0 / weightp=2 / keyint=250 / keyint_min=23 / scenecut=40 / intra_refresh=0 / rc_lookahead=99 / rc=2pass / mbtree=1 / bitrate=3649 / ratetol=1.0 / qcomp=0.60 / qpmin=0 / qpmax=69 / qpstep=4 / cplxblur=20.0 / qblur=0.5 / vbv_maxrate=99999 / vbv_bufsize=99999 / nal_hrd=none / filler=0 / ip_ratio=1.40 / aq=1:1.00
Language : English
Default : Yes
Forced : No

Audio #1
ID : 2
Format : AC-3
Format/Info : Audio Coding 3
Commercial name : Dolby Digital
Codec ID : A_AC3
Duration : 2 h 3 min
Bit rate mode : Constant
Bit rate : 448 kb/s
Channel(s) : 6 channels
Channel layout : L R C LFE Ls Rs
Sampling rate : 48.0 kHz
Frame rate : 31.250 FPS (1536 SPF)
Bit depth : 16 bits
Compression mode : Lossy
Stream size : 396 MiB (9%)
Title : AC3
Language : Thai
Service kind : Complete Main
Default : Yes
Forced : Yes

Audio #2
ID : 3
Format : DTS
Format/Info : Digital Theater Systems
Codec ID : A_DTS
Duration : 2 h 3 min
Bit rate mode : Constant
Bit rate : 755 kb/s
Channel(s) : 6 channels
Channel layout : C L R Ls Rs LFE
Sampling rate : 48.0 kHz
Frame rate : 93.750 FPS (512 SPF)
Bit depth : 24 bits
Compression mode : Lossy
Stream size : 667 MiB (15%)
Title : DTS
Language : English
Default : No
Forced : No

Text #1
ID : 4
Format : VobSub
Codec ID : S_VOBSUB
Codec ID/Info : Picture based subtitle format used on DVDs
Title : 1080P TSA
Language : Thai
Default : Yes
Forced : Yes

Text #2
ID : 5
Format : VobSub
Codec ID : S_VOBSUB
Codec ID/Info : Picture based subtitle format used on DVDs
Title : 1080P TSA YELLOW
Language : Thai
Default : No
Forced : No

Text #3
ID : 6
Format : VobSub
Codec ID : S_VOBSUB
Codec ID/Info : Picture based subtitle format used on DVDs
Title : 1080P TSA UNDER
Language : Thai
Default : No
Forced : No

Text #4
ID : 7
Format : VobSub
Codec ID : S_VOBSUB
Codec ID/Info : Picture based subtitle format used on DVDs
Title : 1080P AS
Language : Thai
Default : No
Forced : No

Text #5
ID : 8
Format : VobSub
Codec ID : S_VOBSUB
Codec ID/Info : Picture based subtitle format used on DVDs
Title : DVD
Language : Thai
Default : No
Forced : No

Text #6
ID : 9
Format : UTF-8
Codec ID : S_TEXT/UTF8
Codec ID/Info : UTF-8 Plain Text
Title : SRT OCR
Language : Thai
Default : No
Forced : No

Text #7
ID : 10
Format : UTF-8
Codec ID : S_TEXT/UTF8
Codec ID/Info : UTF-8 Plain Text
Title : SRT
Language : English
Default : No
Forced : No

Text #8
ID : 11
Format : PGS
Codec ID : S_HDMV/PGS
Codec ID/Info : Picture based subtitle format used on BDs/HD-DVDs
Title : TSA
Language : Thai
Default : No
Forced : No

Text #9
ID : 12
Format : PGS
Codec ID : S_HDMV/PGS
Codec ID/Info : Picture based subtitle format used on BDs/HD-DVDs
Title : TSA UNDER
Language : Thai
Default : No
Forced : No

Text #10
ID : 13
Format : PGS
Codec ID : S_HDMV/PGS
Codec ID/Info : Picture based subtitle format used on BDs/HD-DVDs
Title : AS
Language : Thai
Default : No
Forced : No

Text #11
ID : 14
Format : PGS
Codec ID : S_HDMV/PGS
Codec ID/Info : Picture based subtitle format used on BDs/HD-DVDs
Title : PGS
Language : English
Default : No
Forced : No

DOWNLOAD


PART01 |||| PART02 |||| PART03 |||| PART04 |||| PART05

PART01 |||| PART02 |||| PART03 |||| PART04 |||| PART05

PART01 |||| PART02 |||| PART03 |||| PART04 |||| PART05

PART01 |||| PART02 |||| PART03 |||| PART04 |||| PART05


Leave A Reply

Your email address will not be published.