[MINI Super-HQ] The One (2001) เดี่ยวมหาประลัย [1080p] [พากย์ไทย 5.1 + เสียงจีน 5.1] [บรรยายไทย + อังกฤษ] [เสียงไทย + ซับไทย] [USERLOAD]

0

โหลดหนัง The One (2001) เดี่ยวมหาประลัย

The One 87min | Action, Sci-Fi, Thriller | November 2, 2001 (United States) Summary: A rogue Multiverse agent goes on a manhunt for alternate versions of himself, getting stronger with each kill. Only the last version of himself, an LASD cop, can stop his crusade before he b... Read all
Countries: United StatesLanguages: English

เรื่องย่อ The One (2001) เดี่ยวมหาประลัย

จากผู้กำกับ Final Destination เจาะมิติสู่อนาคตในภาพยนตร์แอ๊คชั่นไซไฟ ระเบิดจินตนาการ เจ็ท ลี.(Romeo Must Die, Lethal Weapon 4).สุด ยอดดาราแอ๊คชั่นระดับโลก ปะทะลีลาบู๊ห้ำหั่นกับตัวเขาเองในบทตำรวจหนุ่มผู้ต่อสู้เพื่อชีวิตของเขากับบทนักฆ่าข้ามจักรวาลผู้มุ่งมั่นกำจัดตัวเองในอีกหลายภพ เพื่อความเป็นหนึ่ง ร่วมด้วย คาร์ล่า กูกิโน่ (Spy Kids), เจสัน สตาแธม (Snatch) และเดลรอย ลินโด (Gone In 60 Seconds) เดอะวัน เดี่ยวมหาประลัย บรรจุแน่นด้วยแอ๊คชั่นเต็มพิกัด แล.เอ็ฟเฟ็กต์ตะลึงตาเหนือขีดจินตนาการของคุณ

Complete name : [MINI Super-HQ]_The.One.2001.1080p.BrRip.AC3.x264.One2loadup.com.mkv
Format : Matroska
Format version : Version 4
File size : 3.15 GiB
Duration : 1 h 27 min
Overall bit rate : 5 163 kb/s
Movie name : [MINI Super-HQ]_The.One.2001.1080p.BrRip.AC3.x264.One2loadup.com
Encoded date : UTC 2014-09-15 00:35:35
Writing application : mkvmerge v7.0.0 (‘Where We Going’) 32bit built on Jun 9 2014 15:08:34
Writing library : libebml v1.3.0 + libmatroska v1.4.1

Video
ID : 1
Format : AVC
Format/Info : Advanced Video Codec
Format profile : [email protected]
Format settings : CABAC / 3 Ref Frames
Format settings, CABAC : Yes
Format settings, Reference : 3 frames
Codec ID : V_MPEG4/ISO/AVC
Duration : 1 h 27 min
Bit rate : 4 200 kb/s
Width : 1 920 pixels
Height : 800 pixels
Display aspect ratio : 2.40:1
Frame rate mode : Constant
Frame rate : 23.976 (24000/1001) FPS
Color space : YUV
Chroma subsampling : 4:2:0
Bit depth : 8 bits
Scan type : Progressive
Bits/(Pixel*Frame) : 0.114
Stream size : 2.56 GiB (81%)
Title : [MINI Super-HQ]_The.One.2001.1080p.BrRip.AC3.x264.One2loadup.com
Writing library : x264 core 116 r2019M 9cc407d
Encoding settings : cabac=1 / ref=3 / deblock=1:-1:-1 / analyse=0x3:0x133 / me=umh / subme=10 / psy=1 / psy_rd=1.00:0.15 / mixed_ref=1 / me_range=16 / chroma_me=1 / trellis=2 / 8x8dct=1 / cqm=0 / deadzone=21,11 / fast_pskip=1 / chroma_qp_offset=-3 / threads=8 / sliced_threads=0 / nr=0 / decimate=1 / interlaced=0 / bluray_compat=0 / constrained_intra=0 / bframes=3 / b_pyramid=1 / b_adapt=2 / b_bias=0 / direct=3 / weightb=1 / open_gop=0 / weightp=2 / keyint=230 / keyint_min=23 / scenecut=40 / intra_refresh=0 / rc_lookahead=40 / rc=2pass / mbtree=1 / bitrate=4200 / ratetol=1.0 / qcomp=0.60 / qpmin=10 / qpmax=51 / qpstep=4 / cplxblur=20.0 / qblur=0.5 / vbv_maxrate=31250 / vbv_bufsize=62500 / nal_hrd=none / ip_ratio=1.40 / aq=1:1.00
Language : English
Default : Yes
Forced : No

Audio #1
ID : 2
Format : AC-3
Format/Info : Audio Coding 3
Commercial name : Dolby Digital
Codec ID : A_AC3
Duration : 1 h 27 min
Bit rate mode : Constant
Bit rate : 448 kb/s
Channel(s) : 6 channels
Channel layout : L R C LFE Ls Rs
Sampling rate : 48.0 kHz
Frame rate : 31.250 FPS (1536 SPF)
Compression mode : Lossy
Stream size : 280 MiB (9%)
Title : 5.1 FROM BDMASTER
Language : Thai
Service kind : Complete Main
Default : Yes
Forced : No

Audio #2
ID : 3
Format : AC-3
Format/Info : Audio Coding 3
Commercial name : Dolby Digital
Codec ID : A_AC3
Duration : 1 h 27 min
Bit rate mode : Constant
Bit rate : 448 kb/s
Channel(s) : 6 channels
Channel layout : L R C LFE Ls Rs
Sampling rate : 48.0 kHz
Frame rate : 31.250 FPS (1536 SPF)
Compression mode : Lossy
Stream size : 280 MiB (9%)
Title : 5.1 FROM BDMASTER
Language : Chinese
Service kind : Complete Main
Default : No
Forced : No

Text #1
ID : 4
Format : VobSub
Codec ID : S_VOBSUB
Codec ID/Info : Picture based subtitle format used on DVDs
Duration : 1 h 18 min
Bit rate : 1 152 b/s
Count of elements : 567
Stream size : 666 KiB (0%)
Title : 480P
Language : Thai
Default : No
Forced : No

Text #2
ID : 5
Format : VobSub
Codec ID : S_VOBSUB
Codec ID/Info : Picture based subtitle format used on DVDs
Duration : 1 h 18 min
Bit rate : 1 152 b/s
Count of elements : 567
Stream size : 666 KiB (0%)
Title : 480P UNDER
Language : Thai
Default : No
Forced : No

Text #3
ID : 6
Format : VobSub
Codec ID : S_VOBSUB
Codec ID/Info : Picture based subtitle format used on DVDs
Duration : 1 h 18 min
Bit rate : 3 794 b/s
Count of elements : 567
Stream size : 2.14 MiB (0%)
Title : 1080P
Language : Thai
Default : No
Forced : No

Text #4
ID : 7
Format : VobSub
Codec ID : S_VOBSUB
Codec ID/Info : Picture based subtitle format used on DVDs
Duration : 1 h 18 min
Bit rate : 3 794 b/s
Count of elements : 567
Stream size : 2.14 MiB (0%)
Title : 1080P UNDER
Language : Thai
Default : No
Forced : No

Text #5
ID : 8
Format : PGS
Codec ID : S_HDMV/PGS
Codec ID/Info : Picture based subtitle format used on BDs/HD-DVDs
Duration : 1 h 18 min
Bit rate : 15.7 kb/s
Count of elements : 1134
Stream size : 8.84 MiB (0%)
Title : BDMASTER
Language : Thai
Default : No
Forced : No

Text #6
ID : 9
Format : PGS
Codec ID : S_HDMV/PGS
Codec ID/Info : Picture based subtitle format used on BDs/HD-DVDs
Duration : 1 h 18 min
Bit rate : 15.7 kb/s
Count of elements : 1134
Stream size : 8.84 MiB (0%)
Title : BD UNDER
Language : Thai
Default : No
Forced : No

Text #7
ID : 10
Format : PGS
Codec ID : S_HDMV/PGS
Codec ID/Info : Picture based subtitle format used on BDs/HD-DVDs
Duration : 1 h 18 min
Bit rate : 19.9 kb/s
Count of elements : 1138
Stream size : 11.2 MiB (0%)
Title : BD
Language : English
Default : No
Forced : No

Text #8
ID : 11
Format : PGS
Codec ID : S_HDMV/PGS
Codec ID/Info : Picture based subtitle format used on BDs/HD-DVDs
Duration : 1 h 18 min
Bit rate : 14.0 kb/s
Count of elements : 1140
Stream size : 7.92 MiB (0%)
Title : BD
Language : Chinese
Default : No
Forced : No

DOWNLOAD


PART01 |||| PART02 |||| PART03 |||| PART04

PART01 |||| PART02 |||| PART03 |||| PART04

PART01 |||| PART02 |||| PART03 |||| PART04

PART01 |||| PART02 |||| PART03 |||| PART04

PART01 |||| PART02 |||| PART03 |||| PART04


Leave A Reply

อีเมล์ของคุณจะไม่แสดงให้เห็น Your email address will not be published.

%d bloggers like this: