[MINI Super-HQ] The Marksman (2021) คนระห่ำ พันธุ์ระอุ [1080p] [พากย์ไทย 2.0 + เสียงอังกฤษ DTS] [บรรยายไทย + อังกฤษ] [เสียงไทยมาสเตอร์ + ซับไทย] [USERLOAD]

0

โหลดหนัง The Marksman (2021) คนระห่ำ พันธุ์ระอุ

The Marksman (2021) 108min | Action, Drama, Thriller | January 15, 2021 (United States) Summary: A rancher on the Arizona border becomes the unlikely defender of a young Mexican boy desperately fleeing the cartel assassins who've pursued him into the U.S.
Countries: United StatesLanguages: English, Spanish

เรื่องย่อ The Marksman (2021) คนระห่ำ พันธุ์ระอุ

อดีตทหารเรือ จิม แฮนสัน (เลียม นีสัน) หนีความวุ่นวายมาใช้ชีวิตอย่างสงบสุขในฟาร์มนอกเมือง วันหนึ่งเขากลับเจอสองแม่ลูก ชื่อ โรซ่า (เทเรซ่า รูอิซ) และ มิเกล (เจค็อบ เปเรซ) หลบหนีเอาตัวรอดจากกลุ่มคนที่หวังเอาชีวิตพวกเขาเพราะไปพัวพันกับกลุ่มนักฆ่าค้ายา มัวริซิโอ (ฮวน พาโบล ราบา) ด้วยความที่มีเลือดนักสู้อย่างเข้มข้นในตัวทำให้ แฮนสัน ตัดสินใจช่วยเหลือสองแม่ลูกทันทีโดยที่ไม่รู้เลยว่าการตัดสินใจครั้งนี้จะพาความอันตรายมาสู่ชีวิตของเขาอย่างไม่คาดคิด ทั้งยังเดือดร้อนไปถึง ซาร่าห์ (แคทธาลีน วินนิค) ลูกสาวผู้เป็นตำรวจของเขาอีกด้วย!!!

Complete name : [MINI Super-HQ]_The.Marksman.2021.1080p.BrRip.DTS.x264.THM.One2loadup.com.mkv
Format : Matroska
Format version : Version 4
File size : 3.99 GiB
Duration : 1 h 47 min
Overall bit rate : 5 319 kb/s
Movie name : [MINI Super-HQ]_The.Marksman.2021.1080p.BrRip.DTS.x264.THM.One2loadup.com
Encoded date : UTC 2021-09-03 23:32:13
Writing application : mkvmerge v9.8.0 (‘Kuglblids’) 64bit
Writing library : libebml v1.3.4 + libmatroska v1.4.5

Video
ID : 1
Format : AVC
Format/Info : Advanced Video Codec
Format profile : [email protected]
Format settings : CABAC / 5 Ref Frames
Format settings, CABAC : Yes
Format settings, Reference : 5 frames
Codec ID : V_MPEG4/ISO/AVC
Duration : 1 h 47 min
Bit rate : 4 100 kb/s
Width : 1 920 pixels
Height : 804 pixels
Display aspect ratio : 2.40:1
Frame rate mode : Constant
Frame rate : 23.976 (24000/1001) FPS
Color space : YUV
Chroma subsampling : 4:2:0
Bit depth : 8 bits
Scan type : Progressive
Bits/(Pixel*Frame) : 0.111
Stream size : 3.08 GiB (77%)
Title : [MINI Super-HQ]_The.Marksman.2021.1080p.BrRip.DTS.x264.THM.One2loadup.com
Writing library : x264 core 157 r2935 545de2f
Encoding settings : cabac=1 / ref=5 / deblock=1:0:0 / analyse=0x1:0x131 / me=tesa / subme=11 / psy=1 / psy_rd=1.00:0.00 / mixed_ref=1 / me_range=24 / chroma_me=1 / trellis=2 / 8x8dct=0 / cqm=0 / deadzone=21,11 / fast_pskip=0 / chroma_qp_offset=-2 / threads=12 / lookahead_threads=3 / sliced_threads=0 / nr=0 / decimate=1 / interlaced=0 / bluray_compat=0 / constrained_intra=0 / bframes=16 / b_pyramid=2 / b_adapt=2 / b_bias=0 / direct=3 / weightb=1 / open_gop=0 / weightp=2 / keyint=240 / keyint_min=24 / scenecut=40 / intra_refresh=0 / rc_lookahead=60 / rc=2pass / mbtree=1 / bitrate=4100 / ratetol=1.0 / qcomp=0.60 / qpmin=0 / qpmax=69 / qpstep=4 / cplxblur=20.0 / qblur=0.5 / vbv_maxrate=50000 / vbv_bufsize=62500 / nal_hrd=none / filler=0 / ip_ratio=1.40 / aq=1:1.00
Language : English
Default : Yes
Forced : No
Color range : Limited
Color primaries : BT.709
Transfer characteristics : BT.709
Matrix coefficients : BT.709

Audio #1
ID : 2
Format : AC-3
Format/Info : Audio Coding 3
Commercial name : Dolby Digital
Codec ID : A_AC3
Duration : 1 h 47 min
Bit rate mode : Constant
Bit rate : 384 kb/s
Channel(s) : 2 channels
Channel layout : L R
Sampling rate : 48.0 kHz
Frame rate : 31.250 FPS (1536 SPF)
Compression mode : Lossy
Stream size : 295 MiB (7%)
Title : Thai Master
Language : Thai
Service kind : Complete Main
Default : Yes
Forced : Yes

Audio #2
ID : 3
Format : DTS
Format/Info : Digital Theater Systems
Codec ID : A_DTS
Duration : 1 h 47 min
Bit rate mode : Constant
Bit rate : 755 kb/s
Channel(s) : 6 channels
Channel layout : C L R Ls Rs LFE
Sampling rate : 48.0 kHz
Frame rate : 93.750 FPS (512 SPF)
Bit depth : 24 bits
Compression mode : Lossy
Stream size : 580 MiB (14%)
Title : English DTS-5.1
Language : English
Default : No
Forced : No

Text #1
ID : 4
Format : PGS
Codec ID : S_HDMV/PGS
Codec ID/Info : Picture based subtitle format used on BDs/HD-DVDs
Duration : 1 h 42 min
Bit rate : 23.6 kb/s
Count of elements : 1592
Stream size : 17.3 MiB (0%)
Title : Thai 1080p PGS
Language : Thai
Default : Yes
Forced : Yes

Text #2
ID : 5
Format : VobSub
Codec ID : S_VOBSUB
Codec ID/Info : Picture based subtitle format used on DVDs
Duration : 1 h 42 min
Bit rate : 5 599 b/s
Count of elements : 795
Stream size : 4.10 MiB (0%)
Title : Thai 1080p
Language : Thai
Default : No
Forced : No

Text #3
ID : 6
Format : PGS
Codec ID : S_HDMV/PGS
Codec ID/Info : Picture based subtitle format used on BDs/HD-DVDs
Duration : 1 h 42 min
Bit rate : 22.6 kb/s
Count of elements : 1592
Stream size : 16.6 MiB (0%)
Title : Thai 1080p Out PGS
Language : Thai
Default : No
Forced : No

Text #4
ID : 7
Format : VobSub
Codec ID : S_VOBSUB
Codec ID/Info : Picture based subtitle format used on DVDs
Duration : 1 h 42 min
Bit rate : 5 342 b/s
Count of elements : 795
Stream size : 3.91 MiB (0%)
Title : Thai 1080p Out
Language : Thai
Default : No
Forced : No

Text #5
ID : 8
Format : VobSub
Codec ID : S_VOBSUB
Codec ID/Info : Picture based subtitle format used on DVDs
Duration : 1 h 42 min
Bit rate : 7 607 b/s
Count of elements : 795
Stream size : 5.57 MiB (0%)
Title : Thai 1080p Big [Yellow]
Language : Thai
Default : No
Forced : No

Text #6
ID : 9
Format : PGS
Codec ID : S_HDMV/PGS
Codec ID/Info : Picture based subtitle format used on BDs/HD-DVDs
Duration : 1 h 45 min
Bit rate : 17.2 kb/s
Count of elements : 1804
Stream size : 13.0 MiB (0%)
Title : English PGS
Language : English
Default : No
Forced : No

Text #7
ID : 10
Format : UTF-8
Codec ID : S_TEXT/UTF8
Codec ID/Info : UTF-8 Plain Text
Duration : 1 h 38 min
Bit rate : 31 b/s
Count of elements : 897
Stream size : 22.3 KiB (0%)
Title : English SRT
Language : English
Default : No
Forced : No

Text #8
ID : 11
Format : UTF-8
Codec ID : S_TEXT/UTF8
Codec ID/Info : UTF-8 Plain Text
Duration : 1 h 45 min
Bit rate : 33 b/s
Count of elements : 1165
Stream size : 26.2 KiB (0%)
Title : English [SDH]
Language : English
Default : No
Forced : No

Menu
00:00:00.000 : en:Chapter 01
00:09:43.291 : en:Chapter 02
00:18:06.877 : en:Chapter 03
00:27:57.551 : en:Chapter 04
00:40:06.446 : en:Chapter 05
00:51:09.566 : en:Chapter 06
01:01:57.255 : en:Chapter 07
01:10:22.009 : en:Chapter 08
01:20:10.139 : en:Chapter 09
01:30:25.920 : en:Chapter 10
01:40:41.494 : en:Chapter 11

DOWNLOAD


PART01 |||| PART02 |||| PART03 |||| PART04 |||| PART05

PART01 |||| PART02 |||| PART03 |||| PART04 |||| PART05

PART01 |||| PART02 |||| PART03 |||| PART04 |||| PART05

PART01 |||| PART02 |||| PART03 |||| PART04 |||| PART05

PART01 |||| PART02 |||| PART03 |||| PART04 |||| PART05


Leave A Reply

อีเมล์ของคุณจะไม่แสดงให้เห็น Your email address will not be published.

%d bloggers like this: