[MINI Super-HQ] The Invincible Dragon (2019) หมัดเหล็กล่าฆาตกร [1080p] [พากย์ไทย 2.0 + เสียงจีน 5.1] [บรรยายไทย + อังกฤษ] [เสียงไทยมาสเตอร์ + ซับไทย] [USERLOAD]

0

โหลดหนัง The Invincible Dragon (2019) หมัดเหล็กล่าฆาตกร

The Invincible Dragon 85min | Action, Adventure, Crime, Mystery, Thriller | June 20, 2019 (Hong Kong) Summary: The undercover agent with dragon tattoo Kowloon continually helped the police to solve mysterious cases, which made him known as a rising star. However, his impulsive personality dragged him... Read all
Countries: Hong KongLanguages: Cantonese, English, Mandarin

เรื่องย่อ The Invincible Dragon (2019) หมัดเหล็กล่าฆาตกร

เก๋าหล่ง (จางจิน) สายลับที่มีรอยสักรูปมังกรตกเป็นเป้าของฆาตกรต่อเนื่องจนทำให้เขาสูญเสียคู่หมั้นและอาชีพการงานของเขาไป เพื่อล้างแค้นเขาจึงเดินหน้าตามล่าฆาตกรต่อเนื่องจนได้ร่วมมือกับนักสู้มวย MMA อย่าง อเล็กซานเดอร์ ซินแคลร์ (แอนเดอร์สัน ซิลวา)!!!

Complete name : [MINI Super-HQ]_The.Invincible.Dragon.2019.1080p.BrRip.AC3.x264.THM.One2loadup.com.mkv
Format : Matroska
Format version : Version 4
File size : 4.11 GiB
Duration : 1 h 38 min
Overall bit rate : 5 964 kb/s
Movie name : [MINI Super-HQ]_The.Invincible.Dragon.2019.1080p.BrRip.AC3.x264.THM.One2loadup.com
Encoded date : UTC 2021-09-01 06:02:06
Writing application : mkvmerge v9.8.0 (‘Kuglblids’) 64bit
Writing library : libebml v1.3.4 + libmatroska v1.4.5

Video
ID : 1
Format : AVC
Format/Info : Advanced Video Codec
Format profile : [email protected]
Format settings : CABAC / 5 Ref Frames
Format settings, CABAC : Yes
Format settings, Reference : 5 frames
Codec ID : V_MPEG4/ISO/AVC
Duration : 1 h 38 min
Bit rate : 4 100 kb/s
Width : 1 920 pixels
Height : 804 pixels
Display aspect ratio : 2.40:1
Frame rate mode : Constant
Frame rate : 24.000 FPS
Color space : YUV
Chroma subsampling : 4:2:0
Bit depth : 8 bits
Scan type : Progressive
Bits/(Pixel*Frame) : 0.111
Stream size : 2.82 GiB (69%)
Title : [MINI Super-HQ]_The.Invincible.Dragon.2019.1080p.BrRip.AC3.x264.THM.One2loadup.com
Writing library : x264 core 157 r2935 545de2f
Encoding settings : cabac=1 / ref=5 / deblock=1:0:0 / analyse=0x1:0x131 / me=tesa / subme=11 / psy=1 / psy_rd=1.00:0.00 / mixed_ref=1 / me_range=24 / chroma_me=1 / trellis=2 / 8x8dct=0 / cqm=0 / deadzone=21,11 / fast_pskip=0 / chroma_qp_offset=-2 / threads=12 / lookahead_threads=3 / sliced_threads=0 / nr=0 / decimate=1 / interlaced=0 / bluray_compat=0 / constrained_intra=0 / bframes=16 / b_pyramid=2 / b_adapt=2 / b_bias=0 / direct=3 / weightb=1 / open_gop=0 / weightp=2 / keyint=240 / keyint_min=24 / scenecut=40 / intra_refresh=0 / rc_lookahead=60 / rc=2pass / mbtree=1 / bitrate=4100 / ratetol=1.0 / qcomp=0.60 / qpmin=0 / qpmax=69 / qpstep=4 / cplxblur=20.0 / qblur=0.5 / vbv_maxrate=50000 / vbv_bufsize=62500 / nal_hrd=none / filler=0 / ip_ratio=1.40 / aq=1:1.00
Language : Chinese
Default : Yes
Forced : No
Color range : Limited
Color primaries : BT.709
Transfer characteristics : BT.709
Matrix coefficients : BT.709

Audio #1
ID : 2
Format : AC-3
Format/Info : Audio Coding 3
Commercial name : Dolby Digital
Codec ID : A_AC3
Duration : 1 h 38 min
Bit rate mode : Constant
Bit rate : 384 kb/s
Channel(s) : 2 channels
Channel layout : L R
Sampling rate : 48.0 kHz
Frame rate : 31.250 FPS (1536 SPF)
Compression mode : Lossy
Stream size : 271 MiB (6%)
Title : Thai Master
Language : Thai
Service kind : Complete Main
Default : Yes
Forced : Yes

Audio #2
ID : 3
Format : AC-3
Format/Info : Audio Coding 3
Commercial name : Dolby Digital
Codec ID : A_AC3
Duration : 1 h 38 min
Bit rate mode : Constant
Bit rate : 640 kb/s
Channel(s) : 6 channels
Channel layout : L R C LFE Ls Rs
Sampling rate : 48.0 kHz
Frame rate : 31.250 FPS (1536 SPF)
Compression mode : Lossy
Stream size : 451 MiB (11%)
Title : Cantonese 5.1
Language : Chinese
Service kind : Complete Main
Default : No
Forced : No

Audio #3
ID : 4
Format : AC-3
Format/Info : Audio Coding 3
Commercial name : Dolby Digital
Codec ID : A_AC3
Duration : 1 h 38 min
Bit rate mode : Constant
Bit rate : 640 kb/s
Channel(s) : 6 channels
Channel layout : L R C LFE Ls Rs
Sampling rate : 48.0 kHz
Frame rate : 31.250 FPS (1536 SPF)
Compression mode : Lossy
Stream size : 451 MiB (11%)
Title : Mandarin 5.1
Language : Chinese
Service kind : Complete Main
Default : No
Forced : No

Text #1
ID : 5
Format : PGS
Codec ID : S_HDMV/PGS
Codec ID/Info : Picture based subtitle format used on BDs/HD-DVDs
Duration : 1 h 38 min
Bit rate : 39.0 kb/s
Count of elements : 2680
Stream size : 27.5 MiB (1%)
Title : Thai 1080p PGS
Language : Thai
Default : Yes
Forced : Yes

Text #2
ID : 6
Format : VobSub
Codec ID : S_VOBSUB
Codec ID/Info : Picture based subtitle format used on DVDs
Duration : 1 h 38 min
Bit rate : 9 193 b/s
Count of elements : 1340
Stream size : 6.48 MiB (0%)
Title : Thai 1080p
Language : Thai
Default : No
Forced : No

Text #3
ID : 7
Format : PGS
Codec ID : S_HDMV/PGS
Codec ID/Info : Picture based subtitle format used on BDs/HD-DVDs
Duration : 1 h 38 min
Bit rate : 37.4 kb/s
Count of elements : 2680
Stream size : 26.4 MiB (1%)
Title : Thai 1080p Out PGS
Language : Thai
Default : No
Forced : No

Text #4
ID : 8
Format : VobSub
Codec ID : S_VOBSUB
Codec ID/Info : Picture based subtitle format used on DVDs
Duration : 1 h 38 min
Bit rate : 8 775 b/s
Count of elements : 1340
Stream size : 6.19 MiB (0%)
Title : Thai 1080p Out
Language : Thai
Default : No
Forced : No

Text #5
ID : 9
Format : VobSub
Codec ID : S_VOBSUB
Codec ID/Info : Picture based subtitle format used on DVDs
Duration : 1 h 38 min
Bit rate : 12.5 kb/s
Count of elements : 1340
Stream size : 8.81 MiB (0%)
Title : Thai 1080p Big [Yellow]
Language : Thai
Default : No
Forced : No

Text #6
ID : 10
Format : PGS
Codec ID : S_HDMV/PGS
Codec ID/Info : Picture based subtitle format used on BDs/HD-DVDs
Duration : 1 h 34 min
Bit rate : 32.5 kb/s
Count of elements : 2320
Stream size : 22.0 MiB (1%)
Title : Chinese [CHS]
Language : Chinese
Default : No
Forced : No

Text #7
ID : 11
Format : PGS
Codec ID : S_HDMV/PGS
Codec ID/Info : Picture based subtitle format used on BDs/HD-DVDs
Duration : 1 h 34 min
Bit rate : 30.2 kb/s
Count of elements : 2320
Stream size : 20.5 MiB (0%)
Title : Chinese [CHT]
Language : Chinese
Default : No
Forced : No

Text #8
ID : 12
Format : PGS
Codec ID : S_HDMV/PGS
Codec ID/Info : Picture based subtitle format used on BDs/HD-DVDs
Duration : 1 h 34 min
Bit rate : 33.6 kb/s
Count of elements : 2320
Stream size : 22.8 MiB (1%)
Title : English PGS
Language : English
Default : No
Forced : No

Text #9
ID : 13
Format : UTF-8
Codec ID : S_TEXT/UTF8
Codec ID/Info : UTF-8 Plain Text
Duration : 1 h 34 min
Bit rate : 50 b/s
Count of elements : 1378
Stream size : 35.2 KiB (0%)
Title : English SRT
Language : English
Default : No
Forced : No

Menu
00:00:00.000 : zh:00:00:00.000
00:05:57.583 : zh:00:05:57.583
00:11:06.083 : zh:00:11:06.083
00:15:39.375 : zh:00:15:39.375
00:20:26.875 : zh:00:20:26.875
00:23:31.625 : zh:00:23:31.625
00:27:44.833 : zh:00:27:44.833
00:30:51.417 : zh:00:30:51.417
00:34:38.292 : zh:00:34:38.292
00:40:35.125 : zh:00:40:35.125
00:46:32.375 : zh:00:46:32.375
00:52:25.417 : zh:00:52:25.417
00:57:19.083 : zh:00:57:19.083
01:01:24.000 : zh:01:01:24.000
01:05:38.375 : zh:01:05:38.375
01:08:45.958 : zh:01:08:45.958
01:15:54.417 : zh:01:15:54.417
01:21:40.917 : zh:01:21:40.917
01:26:23.583 : zh:01:26:23.583
01:34:21.208 : zh:01:34:21.208

DOWNLOAD


PART01 |||| PART02 |||| PART03 |||| PART04 |||| PART05

PART01 |||| PART02 |||| PART03 |||| PART04 |||| PART05

PART01 |||| PART02 |||| PART03 |||| PART04 |||| PART05

PART01 |||| PART02 |||| PART03 |||| PART04 |||| PART05

PART01 |||| PART02 |||| PART03 |||| PART04 |||| PART05


Leave A Reply

อีเมล์ของคุณจะไม่แสดงให้เห็น Your email address will not be published.

%d bloggers like this: