[MINI Super-HQ] The Happytime Murders (2018) ตายหล่ะหว่า ใครฆ่ามัพเพทส์! [1080p] [พากย์ไทย 5.1 + เสียงอังกฤษ DTS] [บรรยายไทย + อังกฤษ] [เสียงไทย + ซับไทย] [OPENLOAD]

0

The Happytime Murders (2018)

โหลดหนัง The Happytime Murders (2018) ตายหล่ะหว่า ใครฆ่ามัพเพทส์!

The Happytime Murders (2018) 1h 31min | Action, Comedy, Crime | 23 August 2018 (Netherlands) Summary: When the puppet cast of a '90s children's TV show begin to get murdered one by one, a disgraced LAPD detective-turned-private eye puppet takes on the case.
Countries: USA, ChinaLanguages: English

เรื่องย่อ The Happytime Murders (2018) ตายหล่ะหว่า ใครฆ่ามัพเพทส์!

“The Happytime Murders” เป็นภาพยนตร์แอคชั่น-คอมเมดี้ ที่ฮาติดเรทสมใจแฟนหนังแน่นอนในเรื่องจะเล่าเกี่ยวกับโลกที่หุ่นผ้าและมนุษย์อาศัย อยู่ร่วมกัน หุ่นเชิดนักสืบเอกชนและอดีตตำรวจ ฟิล ฟิลลิปส์ (บิล แบร์เร็ตต้า) กำลังตามล่าฆาตกรต่อเนื่องที่ลงมือสังหารทีมนักแสดงจาก The Happytime Gang รายการทีวียอดฮิตยุค 80 และ อดีตคนรักของฟิล เจนนี่ (อลิซาเบธ แบงค์ส) กำลังเป็นรายต่อไปทำให้ฟิลจำต้องกลับมาร่วมมือกับศัตรูตลอดกาลอย่าง นักสืบเอ็ดเวิร์ดส (เมลิซซ่า แม็กคาร์ธี) ฉายาอาเจ๊สายโหดแสบกว่าเจ๊ก็มีแต่ทิงเจอร์เท่านั้น! ท่ามกลางการขัดขากันเอง พวกเขาจะลุยฝ่าไปถึงฆาตกรได้หรือไม่?

การันตีความฮาจากเจ้าแม่หนังตลกอย่าง เมลิสซา แม็กคาร์ธี ที่เคยฝากผลงานฮาท้องแข็งมาแล้วใน Bridesmaids, Spy และผลงานล่าสุดอย่าง Can You Ever Forgive Me? โดยทั้งสามเรื่องได้เข้าชิงรางวัลออสการ์สำหรับเรื่องนี้เป็นอีกหนึ่งงานโหดของเมลิสซา เมื่อต้องมาแสดงกับหุ่นล้วน! มนุษย์คนเดียวในฉากจะรับส่งมุกกับหุ่นเชิดยังไงต้องไปดู!!!

Complete name : [MINI Super-HQ]_The.Happytime.Murders.2018.1080p.BrRip.DTS.x264.One2loadup.com.mkv
Format : Matroska
Format version : Version 4
File size : 3.71 GiB
Duration : 1 h 30 min
Overall bit rate : 5 850 kb/s
Movie name : [MINI Super-HQ]_The.Happytime.Murders.2018.1080p.BrRip.DTS.x264.One2loadup.com
Encoded date : UTC 2010-02-22 21:41:31
Writing application : mkvmerge v5.9.0 (‘On The Loose’) built on Dec 9 2012 15:37:01
Writing library : libebml v1.3.0 + libmatroska v1.4.0

Video
ID : 1
Format : AVC
Format/Info : Advanced Video Codec
Format profile : [email protected]
Format settings : CABAC / 4 Ref Frames
Format settings, CABAC : Yes
Format settings, ReFrames : 4 frames
Codec ID : V_MPEG4/ISO/AVC
Duration : 1 h 30 min
Bit rate : 4 358 kb/s
Width : 1 920 pixels
Height : 800 pixels
Display aspect ratio : 2.40:1
Frame rate mode : Constant
Frame rate : 23.976 (24000/1001) FPS
Color space : YUV
Chroma subsampling : 4:2:0
Bit depth : 8 bits
Scan type : Progressive
Bits/(Pixel*Frame) : 0.118
Stream size : 2.87 GiB (77%)
Title : [MINI Super-HQ]_The.Happytime.Murders.2018.1080p.BrRip.DTS.x264.One2loadup.com
Writing library : x264 core 146 r2538 121396c
Encoding settings : cabac=1 / ref=3 / deblock=1:0:0 / analyse=0x3:0x113 / me=umh / subme=11 / psy=1 / psy_rd=1.00:0.00 / mixed_ref=1 / me_range=48 / chroma_me=1 / trellis=2 / 8x8dct=1 / cqm=0 / deadzone=21,11 / fast_pskip=1 / chroma_qp_offset=-2 / threads=12 / lookahead_threads=1 / sliced_threads=0 / nr=0 / decimate=1 / interlaced=0 / bluray_compat=0 / constrained_intra=0 / bframes=3 / b_pyramid=2 / b_adapt=1 / b_bias=0 / direct=1 / weightb=1 / open_gop=0 / weightp=2 / keyint=250 / keyint_min=23 / scenecut=40 / intra_refresh=0 / rc_lookahead=40 / rc=2pass / mbtree=1 / bitrate=4358 / ratetol=1.0 / qcomp=0.60 / qpmin=0 / qpmax=69 / qpstep=4 / cplxblur=20.0 / qblur=0.5 / ip_ratio=1.40 / aq=1:1.00
Language : English
Default : Yes
Forced : No

Audio #1
ID : 2
Format : AC-3
Format/Info : Audio Coding 3
Commercial name : Dolby Digital
Codec ID : A_AC3
Duration : 1 h 30 min
Bit rate mode : Constant
Bit rate : 448 kb/s
Channel(s) : 6 channels
Channel layout : L R C LFE Ls Rs
Sampling rate : 48.0 kHz
Frame rate : 31.250 FPS (1536 SPF)
Bit depth : 16 bits
Compression mode : Lossy
Stream size : 291 MiB (8%)
Title : Thai DVD Master
Language : Thai
Service kind : Complete Main
Default : Yes
Forced : Yes

Audio #2
ID : 3
Format : DTS
Format/Info : Digital Theater Systems
Codec ID : A_DTS
Duration : 1 h 30 min
Bit rate mode : Constant
Bit rate : 755 kb/s
Channel(s) : 6 channels
Channel layout : C L R Ls Rs LFE
Sampling rate : 48.0 kHz
Frame rate : 93.750 FPS (512 SPF)
Bit depth : 24 bits
Compression mode : Lossy
Stream size : 490 MiB (13%)
Title : English DTS
Language : English
Default : No
Forced : No

Text #1
ID : 4
Format : VobSub
Codec ID : S_VOBSUB
Codec ID/Info : Picture based subtitle format used on DVDs
Title : Thai 480p From DVD Master
Language : Thai
Default : No
Forced : No

Text #2
ID : 5
Format : VobSub
Codec ID : S_VOBSUB
Codec ID/Info : Picture based subtitle format used on DVDs
Title : Thai 720p
Language : Thai
Default : No
Forced : No

Text #3
ID : 6
Format : VobSub
Codec ID : S_VOBSUB
Codec ID/Info : Picture based subtitle format used on DVDs
Title : Thai 1080p
Language : Thai
Default : Yes
Forced : Yes

Text #4
ID : 7
Format : VobSub
Codec ID : S_VOBSUB
Codec ID/Info : Picture based subtitle format used on DVDs
Title : Thai 1080p Yellow
Language : Thai
Default : No
Forced : No

Text #5
ID : 8
Format : VobSub
Codec ID : S_VOBSUB
Codec ID/Info : Picture based subtitle format used on DVDs
Title : Thai 1080p Out
Language : Thai
Default : No
Forced : No

Text #6
ID : 9
Format : VobSub
Codec ID : S_VOBSUB
Codec ID/Info : Picture based subtitle format used on DVDs
Title : Thai 1080p BIG
Language : Thai
Default : No
Forced : No

Text #7
ID : 10
Format : VobSub
Codec ID : S_VOBSUB
Codec ID/Info : Picture based subtitle format used on DVDs
Title : Thai 1080p Out [BIG]
Language : Thai
Default : No
Forced : No

Text #8
ID : 11
Format : PGS
Codec ID : S_HDMV/PGS
Codec ID/Info : Picture based subtitle format used on BDs/HD-DVDs
Title : Thai PGS
Language : Thai
Default : No
Forced : No

Text #9
ID : 12
Format : PGS
Codec ID : S_HDMV/PGS
Codec ID/Info : Picture based subtitle format used on BDs/HD-DVDs
Title : Thai PGS Yellow
Language : Thai
Default : No
Forced : No

Text #10
ID : 13
Format : PGS
Codec ID : S_HDMV/PGS
Codec ID/Info : Picture based subtitle format used on BDs/HD-DVDs
Title : Thai PGS Out
Language : Thai
Default : No
Forced : No

Text #11
ID : 14
Format : PGS
Codec ID : S_HDMV/PGS
Codec ID/Info : Picture based subtitle format used on BDs/HD-DVDs
Title : English
Language : English
Default : No
Forced : No

Menu
00:00:00.000 : :00:00:00.000
00:08:35.765 : :00:08:35.765
00:15:12.995 : :00:15:12.995
00:22:23.676 : :00:22:23.676
00:31:17.250 : :00:31:17.250
00:38:13.208 : :00:38:13.208
00:44:11.899 : :00:44:11.899
00:51:28.752 : :00:51:28.752
01:00:52.524 : :01:00:52.524
01:08:02.662 : :01:08:02.662
01:14:15.868 : :01:14:15.868
01:20:37.541 : :01:20:37.541

DOWNLOAD


PART01 |||| PART02 |||| PART03 |||| PART04

PART01 |||| PART02 |||| PART03 |||| PART04

PART01 |||| PART02 |||| PART03 |||| PART04

PART01 |||| PART02 |||| PART03 |||| PART04


Leave A Reply

Your email address will not be published.