[MINI Super-HQ] The Guilty (2021) เดอะ กิลตี้ [1080p] [พากย์อังกฤษ 5.1] [Soundtrack บรรยายไทย + อังกฤษ] [เสียงอังกฤษ + ซับไทย] [USERLOAD]

0

โหลดหนัง The Guilty (2021) เดอะ กิลตี้

The Guilty 90min | Crime, Drama, Thriller | October 1, 2021 (United States) Summary: A demoted police officer assigned to a call dispatch desk is conflicted when he receives an emergency phone call from a kidnapped woman.
Countries: United StatesLanguages: English

เรื่องย่อ The Guilty (2021) เดอะ กิลตี้

ตำรวจสืบสวนผู้มีปัญหารุมเร้าถูกลดขั้นให้มาเป็นเจ้าหน้าที่รับแจ้งเหตุด่วน แล้วสายจากเหยื่อผู้บอบช้ำรายหนึ่ง ก็เปลี่ยนทั้งวันให้กลายเป็นการขุดค้นความจริงสะเทือนจิตใจ

Complete name : [MINI Super-HQ]_The.Guilty.2021.1080p.NF.WEB-DL.EAC3.x264.Subthai.One2loadup.com.mkv
Format : Matroska
Format version : Version 4
File size : 4.18 GiB
Duration : 1 h 29 min
Overall bit rate : 6 722 kb/s
Movie name : [MINI Super-HQ]_The.Guilty.2021.1080p.NF.WEB-DL.EAC3.x264.Subthai.One2loadup.com
Encoded date : UTC 2021-09-21 14:23:52
Writing application : mkvmerge v61.0.0 (‘So’) 64-bit
Writing library : libebml v1.4.2 + libmatroska v1.6.4

Video
ID : 1
Format : AVC
Format/Info : Advanced Video Codec
Format profile : [email protected]
Format settings : CABAC / 3 Ref Frames
Format settings, CABAC : Yes
Format settings, Reference : 3 frames
Codec ID : V_MPEG4/ISO/AVC
Duration : 1 h 29 min
Bit rate : 6 466 kb/s
Width : 1 920 pixels
Height : 800 pixels
Display aspect ratio : 2.40:1
Frame rate mode : Constant
Frame rate : 23.976 (24000/1001) FPS
Color space : YUV
Chroma subsampling : 4:2:0
Bit depth : 8 bits
Scan type : Progressive
Bits/(Pixel*Frame) : 0.176
Stream size : 4.02 GiB (96%)
Title : [MINI Super-HQ]_The.Guilty.2021.1080p.NF.WEB-DL.EAC3.x264.Subthai.One2loadup.com
Language : English
Default : Yes
Forced : No
Color range : Limited
Color primaries : BT.709
Transfer characteristics : BT.709
Matrix coefficients : BT.709

Audio
ID : 2
Format : E-AC-3
Format/Info : Enhanced AC-3
Commercial name : Dolby Digital Plus
Codec ID : A_EAC3
Duration : 1 h 29 min
Bit rate mode : Constant
Bit rate : 224 kb/s
Channel(s) : 2 channels
Channel layout : L R
Sampling rate : 48.0 kHz
Frame rate : 31.250 FPS (1536 SPF)
Compression mode : Lossy
Delay relative to video : 30 ms
Stream size : 143 MiB (3%)
Title : E-AC3 English
Language : English
Service kind : Complete Main
Default : Yes
Forced : No

Text #1
ID : 3
Format : VobSub
Muxing mode : zlib
Codec ID : S_VOBSUB
Codec ID/Info : Picture based subtitle format used on DVDs
Duration : 1 h 23 min
Bit rate : 15.7 kb/s
Count of elements : 1434
Stream size : 9.30 MiB (0%)
Title : Sub Thai 1080p
Language : Thai
Default : No
Forced : No

Text #2
ID : 4
Format : UTF-8
Codec ID : S_TEXT/UTF8
Codec ID/Info : UTF-8 Plain Text
Duration : 1 h 23 min
Bit rate : 165 b/s
Count of elements : 1434
Stream size : 100 KiB (0%)
Title : Sub Thai SRT
Language : Thai
Default : No
Forced : No

Text #3
ID : 5
Format : PGS
Muxing mode : zlib
Codec ID : S_HDMV/PGS
Codec ID/Info : Picture based subtitle format used on BDs/HD-DVDs
Duration : 1 h 23 min
Bit rate : 43.7 kb/s
Count of elements : 2868
Stream size : 26.0 MiB (1%)
Title : Sub Thai PGS
Language : Thai
Default : Yes
Forced : No

Text #4
ID : 6
Format : UTF-8
Codec ID : S_TEXT/UTF8
Codec ID/Info : UTF-8 Plain Text
Duration : 1 h 23 min
Bit rate : 75 b/s
Count of elements : 1455
Stream size : 46.2 KiB (0%)
Title : Sub English SRT
Language : English
Default : No
Forced : No

DOWNLOAD


PART01 |||| PART02 |||| PART03 |||| PART04 |||| PART05

PART01 |||| PART02 |||| PART03 |||| PART04 |||| PART05

PART01 |||| PART02 |||| PART03 |||| PART04 |||| PART05

PART01 |||| PART02 |||| PART03 |||| PART04 |||| PART05

PART01 |||| PART02 |||| PART03 |||| PART04 |||| PART05


Leave A Reply

อีเมล์ของคุณจะไม่แสดงให้เห็น Your email address will not be published.

%d bloggers like this: