[MINI Super-HQ] The Greatest Game Ever Played (2005) เกมยิ่งใหญ่…ชัยชนะเหนือความฝัน [1080p] [พากย์ไทย 5.1 + เสียงอังกฤษ DTS] [บรรยายไทย + อังกฤษ] [เสียงไทย + ซับไทย] [OPENLOAD]

2

The Greatest Game Ever Played (2005) เกมยิ่งใหญ่...ชัยชนะเหนือความฝัน

โหลดหนัง The Greatest Game Ever Played (2005) เกมยิ่งใหญ่…ชัยชนะเหนือความฝัน

The Greatest Game Ever Played (2005) 2h | Biography, Drama, History | 30 September 2005 (USA) Summary: In the 1913 US Open, 20-year-old Francis Ouimet played golf against his idol, 1900 US Open champion, Englishman Harry Vardon.
Countries: USA, CanadaLanguages: English

เรื่องย่อ The Greatest Game Ever Played (2005) เกมยิ่งใหญ่…ชัยชนะเหนือความฝัน

ภาพยนตร์สร้างจากเรื่องจริงของชัยชนะเหนืออุปสรรคทุกสิ่งเรื่องนี้ คืออีกหนึ่งผลงานเรื่องเยี่ยมโดนใจผู้ชมจากวอลท์ ดิสนีย์ พิคเจอร์ นักกอล์ฟมือสมัครเล่นนาม ฟรานซิส ออยเม็ท (ชิอา ลาบิออฟ – Holes I, Robot) คือหนุ่มน้อยผู้มีเพียงพรสวรรค์และความฝันเป็นทุนในการประลองกับเหล่าผู้เล่นยอดฝีมือระดับโลกในเกมที่เป็นสุดยอดของกีฬากอล์ฟ ท่ามกลางความยากลำบากและการก้าวไปสู่ชีวิตที่เพียบพร้อม เด็กหนุ่มชนชั้นกลางผู้นี้ไขว่คว้าสู่ชัยชนะที่สำแดงออกมาด้วยหัวใจที่กล้าแกร่ง ฝีมืออันน่าทึ่ง และความมุ่งมั่นที่ยากจะทำลาย นี่คือผลงานกำกับของนักแสดงชื่อดัง บิล แพ็กซ์ตัน

Complete name : [MINI Super-HQ]_The.Greatest.Game.Ever.Played.2005.1080p.BrRip.DTS.x264.One2loadup.com.mkv
Format : Matroska
Format version : Version 2
File size : 4.36 GiB
Duration : 2 h 0 min
Overall bit rate mode : Variable
Overall bit rate : 5 177 kb/s
Movie name : [MINI Super-HQ]_The.Greatest.Game.Ever.Played.2005.1080p.BrRip.DTS.x264.One2loadup.com
Encoded date : UTC 2017-06-28 16:13:10
Writing application : mkvmerge v5.8.0 (‘No Sleep / Pillow’) built on Sep 2 2012 15:37:04
Writing library : libebml v1.2.3 + libmatroska v1.3.0

Video
ID : 1
Format : AVC
Format/Info : Advanced Video Codec
Format profile : [email protected]
Format settings : CABAC / 4 Ref Frames
Format settings, CABAC : Yes
Format settings, ReFrames : 4 frames
Codec ID : V_MPEG4/ISO/AVC
Duration : 2 h 0 min
Bit rate mode : Variable
Bit rate : 3 679 kb/s
Maximum bit rate : 25.0 Mb/s
Width : 1 920 pixels
Height : 1 036 pixels
Display aspect ratio : 1.85:1
Frame rate mode : Constant
Frame rate : 23.976 (24000/1001) FPS
Color space : YUV
Chroma subsampling : 4:2:0
Bit depth : 8 bits
Scan type : Progressive
Bits/(Pixel*Frame) : 0.077
Stream size : 3.10 GiB (71%)
Title : [MINI Super-HQ]_The.Greatest.Game.Ever.Played.2005.1080p.BrRip.DTS.x264.One2loadup.com
Writing library : x264 core 148 r2579 73ae2d1
Encoding settings : cabac=1 / ref=4 / deblock=1:-2:-2 / analyse=0x3:0x133 / me=tesa / subme=11 / psy=1 / psy_rd=1.00:0.15 / mixed_ref=1 / me_range=24 / chroma_me=1 / trellis=2 / 8x8dct=1 / cqm=0 / deadzone=21,11 / fast_pskip=0 / chroma_qp_offset=-3 / threads=12 / lookahead_threads=1 / sliced_threads=0 / nr=0 / decimate=1 / interlaced=0 / bluray_compat=0 / constrained_intra=0 / bframes=5 / b_pyramid=2 / b_adapt=2 / b_bias=0 / direct=3 / weightb=1 / open_gop=0 / weightp=2 / keyint=240 / keyint_min=24 / scenecut=40 / intra_refresh=0 / rc_lookahead=60 / rc=crf / mbtree=1 / crf=23.2 / qcomp=0.65 / qpmin=0 / qpmax=69 / qpstep=4 / vbv_maxrate=25000 / vbv_bufsize=25000 / crf_max=0.0 / nal_hrd=vbr / filler=0 / ip_ratio=1.40 / aq=1:1.00
Language : English
Default : Yes
Forced : Yes

Audio #1
ID : 2
Format : AC-3
Format/Info : Audio Coding 3
Commercial name : Dolby Digital
Codec ID : A_AC3
Duration : 2 h 0 min
Bit rate mode : Constant
Bit rate : 640 kb/s
Channel(s) : 6 channels
Channel layout : L R C LFE Ls Rs
Sampling rate : 48.0 kHz
Frame rate : 31.250 FPS (1536 SPF)
Bit depth : 16 bits
Compression mode : Lossy
Stream size : 552 MiB (12%)
Title : THAI BluRay 5.1 @ 640 Kbps
Language : Thai
Service kind : Complete Main
Default : Yes
Forced : Yes

Audio #2
ID : 3
Format : DTS
Format/Info : Digital Theater Systems
Codec ID : A_DTS
Duration : 2 h 0 min
Bit rate mode : Constant
Bit rate : 755 kb/s
Channel(s) : 6 channels
Channel layout : C L R Ls Rs LFE
Sampling rate : 48.0 kHz
Frame rate : 93.750 FPS (512 SPF)
Bit depth : 24 bits
Compression mode : Lossy
Stream size : 651 MiB (15%)
Title : ENG DTS 5.1 @ 755 Kbps
Language : English
Default : No
Forced : No

Text #1
ID : 4
Format : VobSub
Codec ID : S_VOBSUB
Codec ID/Info : Picture based subtitle format used on DVDs
Title : THAI 1080p BluRay Master
Language : Thai
Default : Yes
Forced : Yes

Text #2
ID : 5
Format : VobSub
Codec ID : S_VOBSUB
Codec ID/Info : Picture based subtitle format used on DVDs
Title : THAI 1080p Yellow
Language : Thai
Default : No
Forced : No

Text #3
ID : 6
Format : VobSub
Codec ID : S_VOBSUB
Codec ID/Info : Picture based subtitle format used on DVDs
Title : THAI 1080p Out
Language : Thai
Default : No
Forced : No

Text #4
ID : 7
Format : PGS
Codec ID : S_HDMV/PGS
Codec ID/Info : Picture based subtitle format used on BDs/HD-DVDs
Title : THAI PGS 1080p BluRay Master
Language : Thai
Default : No
Forced : No

Text #5
ID : 8
Format : PGS
Codec ID : S_HDMV/PGS
Codec ID/Info : Picture based subtitle format used on BDs/HD-DVDs
Title : THAI PGS 1080p Out
Language : Thai
Default : No
Forced : No

Text #6
ID : 9
Format : PGS
Codec ID : S_HDMV/PGS
Codec ID/Info : Picture based subtitle format used on BDs/HD-DVDs
Title : ENG PGS 1080p BluRay Master
Language : English
Default : No
Forced : No

Menu
00:00:00.000 : en:Opening Credits
00:04:44.075 : en:Harry Vardon
00:15:23.005 : en:Members Only
00:21:37.671 : en:Qualifying
00:35:16.739 : en:The U.S. Open
00:43:02.329 : en:Round One
00:57:32.323 : en:Round Two
01:09:44.680 : en:Round Three
01:14:36.430 : en:Round Four
01:24:19.012 : en:Tie Breaker
01:39:31.298 : en:Acceptance
01:53:12.202 : en:Great Game/End Credits

DOWNLOAD


PART01 |||| PART02 |||| PART03 |||| PART04 |||| PART05

PART01 |||| PART02 |||| PART03 |||| PART04 |||| PART05

PART01 |||| PART02 |||| PART03 |||| PART04 |||| PART05

PART01 |||| PART02 |||| PART03 |||| PART04 |||| PART05


2 Comments
  1. Rosem says

    ลิงก์เสียหรือเปล่าตัว ._____.)

    1. Admin
      Admin says

      แก้ไขเรียบร้อยฮ๊ะ

Leave A Reply

Your email address will not be published.

%d bloggers like this: