[MINI Super-HQ] The Eight Hundred (2020) นักรบ 800 [1080p] [พากย์ไทย 5.1 + เสียงจีน 5.1] [บรรยายจีน (ฝัง) + อังกฤษ (ฝัง)] [เสียงไทย + ซับอังกฤษ] [PANDAFILE]

0

โหลดหนัง The Eight Hundred (2020) นักรบ 800

The Eight Hundred (2020) 2h 29min | Action, Drama, History | 28 August 2020 (USA) Summary: From the acclaimed filmmaker behind Mr. Six comes a riveting war epic. In 1937, eight hundred Chinese soldiers fight under siege from a warehouse in the middle of the Shanghai battlefield, completely surrounded by the Japanese army.
Countries: ChinaLanguages: Chinese, Japanese, English

เรื่องย่อ The Eight Hundred (2020) นักรบ 800

ในช่วงสงครามโลกครั้งที่ 2 กองทัพญี่ปุ่นได้เข้ายึดเซี่ยงไฮ้ โดยที่มีกองกำลังของจีนชื่อว่า กองกำลังปฏิวัติแห่งชาติที่ 88 ที่คอยต่อสู้และปกป้องคลังสินค้า ซึ่งเป็นที่มั่นสุดท้ายขณะที่มีกองกำลังเพียง 400 คน แต่ได้วางแผนหลอกล่อกองทัพญี่ปุ่นว่ามีกองกำลังถึง 800 คน และยังได้รับความช่วยเหลือจากประชาชนชาวจีนอย่างลับๆ อีกด้วย ขณะที่กองทัพญี่ปุ่นก็พยายามทุกวิถีทางแต่ก็ไม่สามารถเข้ายึดโกดังคลังสินค้าได้กองกำลังปฏิวัติที่ 88 ก็สามารถยืนหยัดต่อสู้อย่างไม่กลัวตาย ในการรบครั้งนี้ได้ทำการรบกันถึง 4 วัน 4 คืน จนได้รับการยกย่องและบันทึกจากประชาชนชาวจีนว่าเป็นวีรกรรมการต่อสู้ที่กล้าหาญยิ่งใหญ่ที่สุดครั้งหนึ่งของ กองกำลังปฏิวัติที่ 88 กำกับโดย กวง หู่ ผู้กำกับฝีมือดีการันตีด้วยรางวัลมากมาย เจ้าของผลงานการกำกับเรื่อง Cow (2009), Mr. Six (2015) และ Wo He Wo De Zu Guo (2019) ร่วมสดุดีความกล้าหาญของนายทหาร 800 นายร่วมกัน!!!

Complete name : [MINI Super-HQ]_The.Eight.Hundred.2020.1080p.WEB-DL.AC3.x264.One2loadup.com.mkv
Format : Matroska
Format version : Version 4
File size : 3.88 GiB
Duration : 2 h 28 min
Overall bit rate : 3 739 kb/s
Movie name : [MINI Super-HQ]_The.Eight.Hundred.2020.1080p.WEB-DL.AC3.x264.One2loadup.com
Encoded date : UTC 2020-12-09 22:40:22
Writing application : mkvmerge v9.8.0 (‘Kuglblids’) 64bit
Writing library : libebml v1.3.4 + libmatroska v1.4.5

Video
ID : 1
Format : AVC
Format/Info : Advanced Video Codec
Format profile : [email protected]
Format settings : CABAC / 4 Ref Frames
Format settings, CABAC : Yes
Format settings, ReFrames : 4 frames
Codec ID : V_MPEG4/ISO/AVC
Duration : 2 h 28 min
Bit rate : 3 033 kb/s
Width : 1 920 pixels
Height : 808 pixels
Display aspect ratio : 2.40:1
Frame rate mode : Constant
Frame rate : 24.000 FPS
Color space : YUV
Chroma subsampling : 4:2:0
Bit depth : 8 bits
Scan type : Progressive
Bits/(Pixel*Frame) : 0.081
Stream size : 3.14 GiB (81%)
Title : [MINI Super-HQ]_The.Eight.Hundred.2020.1080p.WEB-DL.AC3.x264.One2loadup.com
Writing library : x264 core 157 r2935 545de2f
Encoding settings : cabac=1 / ref=3 / deblock=1:0:0 / analyse=0x3:0x133 / me=umh / subme=11 / psy=1 / psy_rd=1.00:0.00 / mixed_ref=1 / me_range=48 / chroma_me=1 / trellis=2 / 8x8dct=1 / cqm=0 / deadzone=21,11 / fast_pskip=1 / chroma_qp_offset=-2 / threads=12 / lookahead_threads=1 / sliced_threads=0 / nr=0 / decimate=1 / interlaced=0 / bluray_compat=0 / constrained_intra=0 / bframes=3 / b_pyramid=2 / b_adapt=1 / b_bias=0 / direct=3 / weightb=1 / open_gop=0 / weightp=2 / keyint=240 / keyint_min=24 / scenecut=40 / intra_refresh=0 / rc_lookahead=60 / rc=2pass / mbtree=1 / bitrate=3033 / ratetol=1.0 / qcomp=0.60 / qpmin=0 / qpmax=69 / qpstep=4 / cplxblur=20.0 / qblur=0.5 / vbv_maxrate=25000 / vbv_bufsize=31250 / nal_hrd=none / filler=0 / ip_ratio=1.40 / aq=1:1.00
Language : Chinese
Default : Yes
Forced : No
Color range : Limited
Color primaries : BT.709
Transfer characteristics : BT.709
Matrix coefficients : BT.709

Audio #1
ID : 2
Format : AC-3
Format/Info : Audio Coding 3
Commercial name : Dolby Digital
Codec ID : A_AC3
Duration : 2 h 28 min
Bit rate mode : Constant
Bit rate : 448 kb/s
Channel(s) : 6 channels
Channel layout : L R C LFE Ls Rs
Sampling rate : 48.0 kHz
Frame rate : 31.250 FPS (1536 SPF)
Bit depth : 16 bits
Compression mode : Lossy
Delay relative to video : 19 ms
Stream size : 476 MiB (12%)
Title : Thai DVD Master
Language : Thai
Service kind : Complete Main
Default : Yes
Forced : Yes

Audio #2
ID : 3
Format : E-AC-3
Format/Info : Enhanced AC-3
Commercial name : Dolby Digital Plus
Codec ID : A_EAC3
Duration : 2 h 28 min
Bit rate mode : Constant
Bit rate : 256 kb/s
Channel(s) : 6 channels
Channel layout : L R C LFE Ls Rs
Sampling rate : 48.0 kHz
Frame rate : 31.250 FPS (1536 SPF)
Compression mode : Lossy
Delay relative to video : -5 ms
Stream size : 272 MiB (7%)
Title : Chinese DD+ 5.1
Language : Chinese
Service kind : Complete Main
Default : No
Forced : No

DOWNLOAD


PART01 |||| PART02 |||| PART03 |||| PART04

PART01 |||| PART02 |||| PART03 |||| PART04

PART01 |||| PART02 |||| PART03 |||| PART04

PART01 |||| PART02 |||| PART03 |||| PART04

PART01 |||| PART02 |||| PART03 |||| PART04



แจ้งหนังเสีย หรือโหลดไม่ได้ ทั้งลิ้งฟรีและ vip สามารถกดที่รูปด้านบนนี้ได้เลย

: Disable Comments
%d bloggers like this: