[MINI Super-HQ] Star Wars: Episode VI – Return of the Jedi (1983) สตาร์ วอร์ส เอพพิโซด 6: การกลับมาของเจได [1080p] [พากย์ไทย 5.1 + เสียงอังกฤษ 5.1] [บรรยายไทย + อังกฤษ] [เสียงไทย + ซับไทย] [PANDAFILE]

6

Star Wars: Episode VI - Return of the Jedi (1983)

โหลดหนัง Star Wars: Episode VI – Return of the Jedi (1983) สตาร์ วอร์ส เอพพิโซด 6: การกลับมาของเจได

Star Wars: Episode VI - Return of the Jedi | May 25, 1983 (United States) Summary: After a daring mission to rescue Han Solo from Jabba the Hutt, the Rebels dispatch to Endor to destroy the second Death Star. Meanwhile, Luke struggles to help Darth Vader back from the dark... Read all
Countries: United StatesLanguages: English

เรื่องย่อ Star Wars: Episode VI – Return of the Jedi (1983) สตาร์ วอร์ส เอพพิโซด 6: การกลับมาของเจได

ตอนสุดท้าย ลุค สกายวอร์คเกอร์เดินทางกลับสู่ทาทูอิน ดาวบ้านเกิด เพื่อพยายามช่วย ฮันส์ โซโล เพื่อนรัก จากเงื้อมมือของมาเฟียอวกาศ แจ๊บบา เดอะฮัทท์ โดยที่ลุค หาล่วงรู้ไม่ว่าจักรวรรดิกาแล็คติคกำลังแอบสร้างสถานีอวกาศที่มีเกราะขนาดยักษ์ ซึ่งมีอำนาจทำลายล้างมากกว่าดาวมรณะดวงแรกที่ถูกทำลา ยไป หากการสร้างสำเร็จ ย่อมหมายถึงการพินาศของกบฏกลุ่มเล็ก ซึ่งต่อสู้เพื่อกอบกู้อิสรภาพให้แก่ทั้งแกแล็คซี่

Complete name : [MINI Super-HQ]_Star.Wars.Episode.VI.Return.of.the.Jedi.1983.1080p.AC3.x264.One2loadup.com.mkv
Format : Matroska
Format version : Version 4 / Version 2
File size : 3.90 GiB
Duration : 2 h 14 min
Overall bit rate mode : Variable
Overall bit rate : 4 137 kb/s
Movie name : [MINI Super-HQ]_Star.Wars.Episode.VI.Return.of.the.Jedi.1983.1080p.AC3.x264.One2loadup.com
Encoded date : UTC 2015-06-06 04:09:48
Writing application : mkvmerge v7.8.0 (‘River Man’) 32bit built on Mar 27 2015 16:18:02
Writing library : libebml v1.3.1 + libmatroska v1.4.2
Cover : Yes
Attachments : cover_land.png / cover.png

Video
ID : 1
Format : AVC
Format/Info : Advanced Video Codec
Format profile : [email protected]
Format settings, CABAC : Yes
Format settings, RefFrames : 4 frames
Codec ID : V_MPEG4/ISO/AVC
Duration : 2 h 14 min
Bit rate mode : Variable
Bit rate : 2 967 kb/s
Maximum bit rate : 40.0 Mb/s
Width : 1 920 pixels
Height : 816 pixels
Display aspect ratio : 2.35:1
Frame rate mode : Constant
Frame rate : 23.976 (24000/1001) FPS
Color space : YUV
Chroma subsampling : 4:2:0
Bit depth : 8 bits
Scan type : Progressive
Bits/(Pixel*Frame) : 0.079
Stream size : 2.79 GiB (72%)
Title : [MINI Super-HQ]_Star.Wars.Episode.VI.Return.of.the.Jedi.1983.1080p.AC3.x264.One2loadup.com
Language : English
Default : Yes
Forced : No

Audio #1
ID : 2
Format : AC-3
Format/Info : Audio Coding 3
Format settings, Endianness : Big
Codec ID : A_AC3
Duration : 2 h 14 min
Bit rate mode : Constant
Bit rate : 448 kb/s
Channel(s) : 6 channels
Channel positions : Front: L C R, Side: L R, LFE
Sampling rate : 48.0 kHz
Frame rate : 31.250 FPS (1536 SPF)
Bit depth : 16 bits
Compression mode : Lossy
Stream size : 432 MiB (11%)
Title : AC3 BD MASTER
Language : Thai
Service kind : Complete Main
Default : Yes
Forced : Yes

Audio #2
ID : 3
Format : AC-3
Format/Info : Audio Coding 3
Format settings, Endianness : Big
Codec ID : A_AC3
Duration : 2 h 14 min
Bit rate mode : Constant
Bit rate : 640 kb/s
Channel(s) : 6 channels
Channel positions : Front: L C R, Side: L R, LFE
Sampling rate : 48.0 kHz
Frame rate : 31.250 FPS (1536 SPF)
Bit depth : 16 bits
Compression mode : Lossy
Stream size : 617 MiB (15%)
Title : AC3
Language : English
Service kind : Complete Main
Default : No
Forced : No

Text #1
ID : 4
Format : VobSub
Codec ID : S_VOBSUB
Codec ID/Info : Picture based subtitle format used on DVDs
Title : 1080P
Language : Thai
Default : Yes
Forced : Yes

Text #2
ID : 5
Format : VobSub
Codec ID : S_VOBSUB
Codec ID/Info : Picture based subtitle format used on DVDs
Title : 1080P YELLOW
Language : Thai
Default : No
Forced : No

Text #3
ID : 6
Format : VobSub
Codec ID : S_VOBSUB
Codec ID/Info : Picture based subtitle format used on DVDs
Title : 480P
Language : Thai
Default : No
Forced : No

Text #4
ID : 7
Format : VobSub
Codec ID : S_VOBSUB
Codec ID/Info : Picture based subtitle format used on DVDs
Title : 1080P
Language : English
Default : No
Forced : No

Text #5
ID : 8
Format : PGS
Codec ID : S_HDMV/PGS
Codec ID/Info : Picture based subtitle format used on BDs/HD-DVDs
Title : BD MASTER
Language : Thai
Default : No
Forced : No

Menu
00:00:00.000 : en:Opening Logos
00:00:21.187 : en:Return of the Jedi
00:01:55.115 : en:Vader’s Unexpected Visit
00:04:58.464 : en:Arrival at Jabba’s Palace
00:08:10.907 : en:A Message and a Gift
00:12:21.907 : en:The Max Rebo Band
00:14:22.027 : en:The Price for Chewbacca
00:17:36.013 : en:Free From the Carbonite
00:22:10.037 : en:Enter the Jedi
00:25:08.340 : en:”Oh No! the Rancor!”
00:29:37.358 : en:On the Sail Barge
00:31:29.012 : en:The Sarlacc Pit
00:37:44.470 : en:The Emperor Arrives
00:39:32.244 : en:Yoda’s Twilight
00:45:17.423 : en:A Certain Point of View
00:48:23.400 : en:Rebel Briefing
00:51:36.009 : en:Lending the Falcon
00:53:32.667 : en:The Emperor’s Instructions
00:54:25.095 : en:Flying Casual
00:56:55.245 : en:Arrival on Endor
00:58:43.811 : en:Speeder Bike Chase
01:02:41.716 : en:Leia Meets Wicket
01:06:19.266 : en:Vader’s Report
01:07:47.480 : en:An Ewok Trap
01:12:01.108 : en:The Golden God
01:15:52.673 : en:Campfire Stories
01:18:14.815 : en:Brother and Sister
01:22:30.403 : en:Luke Surrenders
01:26:06.870 : en:Rebel Recon
01:26:52.081 : en:The Alliance Fleet
01:27:50.890 : en:Back Door
01:30:04.524 : en:Luke and the Emperor
01:33:19.135 : en:”It’s A Trap!”
01:36:41.420 : en:Ewok Attack
01:40:25.185 : en:Fully Operational
01:42:23.178 : en:The Battle Rages
01:44:27.803 : en:The Dark Side Beckons
01:45:26.945 : en:The Ewoks Turn the Tide
01:48:42.432 : en:Father vs. Son
01:50:40.634 : en:Taking the Bunker
01:51:37.107 : en:A Jedi’s Fury
01:54:37.120 : en:The Shield Is Down
01:55:07.859 : en:Force Lightning
01:55:57.492 : en:Vader’s Redemption
01:57:40.178 : en:Into the Death Star
01:59:34.167 : en:Anakin Unmasked
02:01:58.853 : en:Death Star Destroyed
02:04:50.566 : en:Funeral Pyre
02:05:27.436 : en:Celebration
02:07:56.043 : en:End Credits

 

DOWNLOAD


PART01 |||| PART02 |||| PART03 |||| PART04

PART01 |||| PART02 |||| PART03 |||| PART04

PART01 |||| PART02 |||| PART03 |||| PART04

PART01 |||| PART02 |||| PART03 |||| PART04

PART01 |||| PART02 |||| PART03 |||| PART04


6 Comments
  1. Kittipat Poorahong
    Kittipat Poorahong says

    โหลดไม่ได้ครับ รบกวนแก้ไขหน่อยครับ ลิงค์เสียทุกอันเลยครับ

    1. Admin
      Admin says

      แก้ไขเรียบร้อยฮ๊ะ

  2. Narong says

    ตอนนี้ link เสียทั้งหมดอีกแล้วครับ

    1. Admin
      Admin says

      แก้ไขเรียบร้อยฮ๊ะ

  3. Best Maru
    Best Maru says

    โหลดไม่ได้ครับ

    1. Admin
      Admin says

      แก้ไขเรียบร้อยฮ๊ะ

Leave A Reply

อีเมล์ของคุณจะไม่แสดงให้เห็น Your email address will not be published.

%d bloggers like this: