[MINI Super-HQ] Star Wars: Episode IX – The Rise of Skywalker (2019) สตาร์ วอร์ส: กำเนิดใหม่สกายวอล์คเกอร์ [1080p] [พากย์ไทย 5.1 + เสียงอังกฤษ DTS] [บรรยายไทย + อังกฤษ] [เสียงไทย + ซับไทย] [DOSYAUPLOAD]

0

โหลดหนัง Star Wars: Episode IX – The Rise of Skywalker (2019) สตาร์ วอร์ส: กำเนิดใหม่สกายวอล์คเกอร์ 

Star Wars: Episode IX - The Rise of Skywalker (2019) 141min | Action, Adventure, Fantasy, Sci-Fi | December 20, 2019 (United States) Summary: In the riveting conclusion of the landmark Skywalker saga, new legends will be born-and the final battle for freedom is yet to come.
Countries: United StatesLanguages: English

เรื่องย่อ Star Wars: Episode IX – The Rise of Skywalker (2019) สตาร์ วอร์ส: กำเนิดใหม่สกายวอล์คเกอร์

มหากาพย์ของสงครามอวกาศเดินทางมาถึงจุดสิ้นสุดของไตรภาคใหม่เหตุการณ์หลังจากไคโลเรน นำกองทัพกวาดล้างกลุ่มกบฎ ซึ่งคราวนี้แตกพ่ายโดยมี เรย์ หญิงสาวตัวละครหลักของไตรภาคนี้นำเจ้าหญิงเลอาห์และกลุ่มกบฎขึ้นยานมิลเลนเนียมฟัลคอนหลบหนีไปในขณะที่ลุคสกายวอล์คเกอร์ ได้ใช้พลังเจไดเฮือกสุดท้ายในการไคโลเรน ก่อนที่เขาจะเสียชีวิตไปตามวิถีของเจไดเรื่องราวต่อไปใน Star Wars IX จะเป็นอย่างไรต้องไปห้ามพลาดชม!!!

Complete name : [MINI Super-HQ]_Star.Wars.Episode.IX.The.Rise.of.Skywalker.2019.1080p.BrRip.DTS.x264.One2ladup.com.mkv
Format : Matroska
Format version : Version 4
File size : 4.37 GiB
Duration : 2 h 22 min
Overall bit rate : 4 401 kb/s
Movie name : [MINI Super-HQ]_Star.Wars.Episode.IX.The.Rise.of.Skywalker.2019.1080p.BrRip.DTS.x264.One2ladup.com
Encoded date : UTC 2021-08-07 17:22:49
Writing application : mkvmerge v9.8.0 (‘Kuglblids’) 64bit
Writing library : libebml v1.3.4 + libmatroska v1.4.5

Video
ID : 1
Format : AVC
Format/Info : Advanced Video Codec
Format profile : [email protected]
Format settings : CABAC / 4 Ref Frames
Format settings, CABAC : Yes
Format settings, Reference : 4 frames
Codec ID : V_MPEG4/ISO/AVC
Duration : 2 h 21 min
Bit rate : 3 172 kb/s
Width : 1 920 pixels
Height : 804 pixels
Display aspect ratio : 2.40:1
Frame rate mode : Constant
Frame rate : 23.976 (24000/1001) FPS
Color space : YUV
Chroma subsampling : 4:2:0
Bit depth : 8 bits
Scan type : Progressive
Bits/(Pixel*Frame) : 0.086
Stream size : 3.14 GiB (72%)
Title : [MINI Super-HQ]_Star.Wars.Episode.IX.The.Rise.of.Skywalker.2019.1080p.BrRip.DTS.x264.One2ladup.com
Writing library : x264 core 146 r2538 121396c
Encoding settings : cabac=1 / ref=5 / deblock=1:-3:-3 / analyse=0x3:0x133 / me=tesa / subme=11 / psy=1 / psy_rd=1.00:0.15 / mixed_ref=1 / me_range=48 / chroma_me=1 / trellis=2 / 8x8dct=1 / cqm=0 / deadzone=21,11 / fast_pskip=1 / chroma_qp_offset=-3 / threads=54 / lookahead_threads=4 / sliced_threads=0 / nr=0 / decimate=1 / interlaced=0 / bluray_compat=1 / constrained_intra=0 / bframes=3 / b_pyramid=1 / b_adapt=2 / b_bias=0 / direct=3 / weightb=1 / open_gop=0 / weightp=1 / keyint=250 / keyint_min=1 / scenecut=40 / intra_refresh=0 / rc_lookahead=60 / rc=2pass / mbtree=1 / bitrate=3172 / ratetol=1.0 / qcomp=0.60 / qpmin=0 / qpmax=69 / qpstep=4 / cplxblur=20.0 / qblur=0.5 / ip_ratio=1.40 / aq=1:1.30
Language : English
Default : Yes
Forced : No

Audio #1
ID : 2
Format : AC-3
Format/Info : Audio Coding 3
Commercial name : Dolby Digital
Codec ID : A_AC3
Duration : 2 h 22 min
Bit rate mode : Constant
Bit rate : 384 kb/s
Channel(s) : 6 channels
Channel layout : L R C LFE Ls Rs
Sampling rate : 48.0 kHz
Frame rate : 31.250 FPS (1536 SPF)
Compression mode : Lossy
Stream size : 391 MiB (9%)
Title : Thai 5.1 Master
Language : Thai
Service kind : Complete Main
Default : Yes
Forced : Yes

Audio #2
ID : 3
Format : DTS
Format/Info : Digital Theater Systems
Codec ID : A_DTS
Duration : 2 h 21 min
Bit rate mode : Constant
Bit rate : 755 kb/s
Channel(s) : 6 channels
Channel layout : C L R Ls Rs LFE
Sampling rate : 48.0 kHz
Frame rate : 93.750 FPS (512 SPF)
Bit depth : 24 bits
Compression mode : Lossy
Stream size : 766 MiB (17%)
Title : English DTS-5.1
Language : English
Default : No
Forced : No

Text #1
ID : 4
Format : PGS
Codec ID : S_HDMV/PGS
Codec ID/Info : Picture based subtitle format used on BDs/HD-DVDs
Duration : 2 h 21 min
Bit rate : 27.0 kb/s
Count of elements : 2878
Stream size : 27.3 MiB (1%)
Title : Thai 1080p PGS
Language : Thai
Default : Yes
Forced : Yes

Text #2
ID : 5
Format : VobSub
Codec ID : S_VOBSUB
Codec ID/Info : Picture based subtitle format used on DVDs
Duration : 2 h 21 min
Bit rate : 6 309 b/s
Count of elements : 1439
Stream size : 6.38 MiB (0%)
Title : Thai 1080p
Language : Thai
Default : No
Forced : No

Text #3
ID : 6
Format : PGS
Codec ID : S_HDMV/PGS
Codec ID/Info : Picture based subtitle format used on BDs/HD-DVDs
Duration : 2 h 21 min
Bit rate : 26.6 kb/s
Count of elements : 2878
Stream size : 26.9 MiB (1%)
Title : Thai 1080p Out PGS
Language : Thai
Default : No
Forced : No

Text #4
ID : 7
Format : VobSub
Codec ID : S_VOBSUB
Codec ID/Info : Picture based subtitle format used on DVDs
Duration : 2 h 21 min
Bit rate : 6 225 b/s
Count of elements : 1439
Stream size : 6.29 MiB (0%)
Title : Thai 1080p Out
Language : Thai
Default : No
Forced : No

Text #5
ID : 8
Format : VobSub
Codec ID : S_VOBSUB
Codec ID/Info : Picture based subtitle format used on DVDs
Duration : 2 h 21 min
Bit rate : 8 644 b/s
Count of elements : 1439
Stream size : 8.74 MiB (0%)
Title : Thai 1080p Big [Yellow]
Language : Thai
Default : No
Forced : No

Text #6
ID : 9
Format : PGS
Codec ID : S_HDMV/PGS
Codec ID/Info : Picture based subtitle format used on BDs/HD-DVDs
Duration : 2 h 12 min
Bit rate : 27.4 kb/s
Count of elements : 2901
Stream size : 25.9 MiB (1%)
Title : English PGS
Language : English
Default : No
Forced : No

Menu
00:00:00.000 : en:00:00:00.000
00:00:09.176 : en:00:00:09.176
00:01:40.934 : en:00:01:40.934
00:03:47.811 : en:00:03:47.811
00:06:42.902 : en:00:06:42.902
00:08:26.673 : en:00:08:26.673
00:10:04.896 : en:00:10:04.896
00:12:48.142 : en:00:12:48.142
00:13:54.000 : en:00:13:54.000
00:15:17.416 : en:00:15:17.416
00:17:13.199 : en:00:17:13.199
00:19:25.039 : en:00:19:25.039
00:21:28.579 : en:00:21:28.579
00:25:27.693 : en:00:25:27.693
00:27:14.883 : en:00:27:14.883
00:30:41.548 : en:00:30:41.548
00:35:49.064 : en:00:35:49.064
00:41:37.745 : en:00:41:37.745
00:43:15.259 : en:00:43:15.259
00:45:28.351 : en:00:45:28.351
00:48:24.568 : en:00:48:24.568
00:54:37.566 : en:00:54:37.566
00:58:49.192 : en:00:58:49.192
01:02:54.771 : en:01:02:54.771
01:06:23.104 : en:01:06:23.104
01:09:54.607 : en:01:09:54.607
01:13:07.383 : en:01:13:07.383
01:18:23.616 : en:01:18:23.616
01:23:41.225 : en:01:23:41.225
01:27:02.884 : en:01:27:02.884
01:30:23.126 : en:01:30:23.126
01:35:00.820 : en:01:35:00.820
01:38:47.880 : en:01:38:47.880
01:40:35.863 : en:01:40:35.863
01:43:03.135 : en:01:43:03.135
01:45:27.863 : en:01:45:27.863
01:48:48.188 : en:01:48:48.188
01:53:27.634 : en:01:53:27.634
01:55:30.757 : en:01:55:30.757
01:59:02.969 : en:01:59:02.969
02:01:37.749 : en:02:01:37.749
02:05:20.430 : en:02:05:20.430
02:09:42.692 : en:02:09:42.692
02:12:25.896 : en:02:12:25.896

DOWNLOAD


PART01 |||| PART02 |||| PART03 |||| PART04 |||| PART05

PART01 |||| PART02 |||| PART03 |||| PART04 |||| PART05

PART01 |||| PART02 |||| PART03 |||| PART04 |||| PART05

PART01 |||| PART02 |||| PART03 |||| PART04 |||| PART05

PART01 |||| PART02 |||| PART03 |||| PART04 |||| PART05


Leave A Reply

อีเมล์ของคุณจะไม่แสดงให้เห็น Your email address will not be published.

%d bloggers like this: