[MINI Super-HQ] Star Wars: Episode IV – A New Hope (1977) สตาร์ วอร์ส 4 ความหวังใหม่ [1080p] [พากย์ไทย 5.1 + เสียงอังกฤษ 5.1] [บรรยายไทย + อังกฤษ] [เสียงไทย + ซับไทย] [PANDAFILE]

2

โหลดหนัง Star Wars: Episode IV – A New Hope (1977) สตาร์ วอร์ส 4 ความหวังใหม่

Star Wars | May 25, 1977 (United States) Summary: Luke Skywalker joins forces with a Jedi Knight, a cocky pilot, a Wookiee and two droids to save the galaxy from the Empire's world-destroying battle station, while also attempting to rescue ... Read all
Countries: United StatesLanguages: English

เรื่องย่อ Star Wars: Episode IV – A New Hope (1977) สตาร์ วอร์ส 4 ความหวังใหม่

ในช่วงสงครามกลางเมือง กองยานฝ่ายกบฏ จากฐานลับ เข้าทำการโจมตี จนได้ชัยชนะครั้งแรกต่อจักรวรรดิทรราช ระหว่างการรบ สายลับฝ่ายกบฏได้โจรกรรมแบบแปลนลับสุดยอด ดาวมรณะ อาวุธของฝ่ายจักรวรรดิ อันเป็นสถานีอวกาศที่มีเกราะ ซึ่งทำลายล้างดาวเคราะห์ทั้งดวงได้ ขณะถูกทหารฝ่ายจักรวรรดิไล่ล่า เจ้าหญิงเลอาเร่งนำยานกลับบ้าน พร้อมแบบแปลนที่โจรกรรมมา ซึ่งจะช่วยประชาชนของเธอ กอบกู้อิสรภาพแก่แกแล็คซี่ได้

Complete name : [MINI Super-HQ]_Star.Wars.Episode.IV.A.New.Hope.1977.1080p.AC3.x264.One2loadup.com.mkv
Format : Matroska
Format version : Version 4 / Version 2
File size : 3.79 GiB
Duration : 2 h 4 min
Overall bit rate mode : Variable
Overall bit rate : 4 347 kb/s
Movie name : [MINI Super-HQ]_Star.Wars.Episode.IV.A.New.Hope.1977.1080p.AC3.x264.One2loadup.com
Encoded date : UTC 2015-06-06 03:51:31
Writing application : mkvmerge v7.8.0 (‘River Man’) 32bit built on Mar 27 2015 16:18:02
Writing library : libebml v1.3.1 + libmatroska v1.4.2
Cover : Yes
Attachments : cover_land.png / cover.png

Video
ID : 1
Format : AVC
Format/Info : Advanced Video Codec
Format profile : [email protected]
Format settings, CABAC : Yes
Format settings, RefFrames : 4 frames
Codec ID : V_MPEG4/ISO/AVC
Duration : 2 h 4 min
Bit rate mode : Variable
Bit rate : 3 173 kb/s
Maximum bit rate : 40.0 Mb/s
Width : 1 920 pixels
Height : 818 pixels
Display aspect ratio : 2.35:1
Frame rate mode : Constant
Frame rate : 23.976 (24000/1001) FPS
Color space : YUV
Chroma subsampling : 4:2:0
Bit depth : 8 bits
Scan type : Progressive
Bits/(Pixel*Frame) : 0.084
Stream size : 2.76 GiB (73%)
Title : [MINI Super-HQ]_Star.Wars.Episode.IV.A.New.Hope.1977.1080p.AC3.x264.One2loadup.com
Language : English
Default : Yes
Forced : No

Audio #1
ID : 2
Format : AC-3
Format/Info : Audio Coding 3
Format settings, Endianness : Big
Codec ID : A_AC3
Duration : 2 h 4 min
Bit rate mode : Constant
Bit rate : 448 kb/s
Channel(s) : 6 channels
Channel positions : Front: L C R, Side: L R, LFE
Sampling rate : 48.0 kHz
Frame rate : 31.250 FPS (1536 SPF)
Bit depth : 16 bits
Compression mode : Lossy
Stream size : 400 MiB (10%)
Title : AC3 BD MASSTER
Language : Thai
Service kind : Complete Main
Default : Yes
Forced : Yes

Audio #2
ID : 3
Format : AC-3
Format/Info : Audio Coding 3
Format settings, Endianness : Big
Codec ID : A_AC3
Duration : 2 h 4 min
Bit rate mode : Constant
Bit rate : 640 kb/s
Channel(s) : 6 channels
Channel positions : Front: L C R, Side: L R, LFE
Sampling rate : 48.0 kHz
Frame rate : 31.250 FPS (1536 SPF)
Bit depth : 16 bits
Compression mode : Lossy
Stream size : 571 MiB (15%)
Title : AC3
Language : English
Service kind : Complete Main
Default : No
Forced : No

Text #1
ID : 4
Format : VobSub
Codec ID : S_VOBSUB
Codec ID/Info : Picture based subtitle format used on DVDs
Title : 1080P
Language : Thai
Default : Yes
Forced : Yes

Text #2
ID : 5
Format : VobSub
Codec ID : S_VOBSUB
Codec ID/Info : Picture based subtitle format used on DVDs
Title : 1080P YELLOW
Language : Thai
Default : No
Forced : No

Text #3
ID : 6
Format : VobSub
Codec ID : S_VOBSUB
Codec ID/Info : Picture based subtitle format used on DVDs
Title : 480P
Language : Thai
Default : No
Forced : No

Text #4
ID : 7
Format : VobSub
Codec ID : S_VOBSUB
Codec ID/Info : Picture based subtitle format used on DVDs
Title : 1080P
Language : English
Default : No
Forced : No

Text #5
ID : 8
Format : PGS
Codec ID : S_HDMV/PGS
Codec ID/Info : Picture based subtitle format used on BDs/HD-DVDs
Title : BD MASTER
Language : Thai
Default : No
Forced : No

Menu
00:00:00.000 : en:Opening Logos
00:00:22.000 : en:A New Hope
00:01:53.801 : en:Imperial Boarding Party
00:04:53.468 : en:Artoo’s Mission
00:07:28.802 : en:Vader Confronts the Princess
00:08:55.469 : en:Lost in the Desert
00:11:21.804 : en:Land of Jawas
00:15:40.471 : en:Droids for Sale
00:19:40.638 : en:In the Garage
00:23:33.138 : en:Lars Family Dinner
00:25:32.472 : en:Binary Sunset
00:27:45.139 : en:Attack of the Sand People
00:29:12.306 : en:Meeting Old Ben
00:32:33.473 : en:”Your Father’s Lightsaber”
00:34:52.307 : en:Leia’s Message
00:36:53.340 : en:The Death Star
00:39:04.640 : en:Torched Homestead
00:41:41.141 : en:Luke’s Decision
00:42:30.641 : en:Mos Eisley Spaceport
00:44:50.342 : en:The Cantina
00:47:51.143 : en:Han Solo
00:49:56.310 : en:Cornered by Greedo
00:51:12.343 : en:Death Star Destination
00:52:39.510 : en:Jabba the Hutt
00:54:11.177 : en:The Millennium Falcon
00:56:58.311 : en:Alderaan’s Fate
00:59:11.978 : en:Lightsaber Training
01:03:08.979 : en:”That’s No Moon…”
01:06:14.313 : en:Secret Compartment
01:08:19.647 : en:Planning the Escape
01:12:29.814 : en:Wookie Prisoner
01:14:10.648 : en:Rescuing the Princess
01:17:10.848 : en:Into the Garbage Chute
01:19:06.348 : en:The Trash Compactor
01:21:26.316 : en:The Walls Close In
01:24:56.983 : en:Deactivating the Tractor Beam
01:26:58.650 : en:Back to the Ship
01:29:52.650 : en:Obi-Wan Vs. Vader
01:33:44.517 : en:Tie Fighter Attack
01:36:35.852 : en:”They Let Us Go”
01:38:02.653 : en:Arrival on Yavin 4
01:39:33.521 : en:Rebel Briefing
01:41:20.821 : en:Han’s Departure
01:42:33.021 : en:Luke and Biggs
01:44:58.154 : en:Assault on the Death Star
01:49:38.155 : en:Trench Runs
01:55:13.822 : en:”Use the Force, Luke”
01:57:42.322 : en:A Hero’s Welcome
01:58:23.156 : en:Medal Ceremony
02:00:09.090 : en:End Credits

 

DOWNLOAD


PART01 |||| PART02 |||| PART03 |||| PART04

PART01 |||| PART02 |||| PART03 |||| PART04

PART01 |||| PART02 |||| PART03 |||| PART04

PART01 |||| PART02 |||| PART03 |||| PART04

PART01 |||| PART02 |||| PART03 |||| PART04


2 Comments
  1. M says

    ช่วยอัพใหม่ทีครับ

    1. Admin
      Admin says

      แก้ไขเรียบร้อยแล้วฮ๊ะ

Leave A Reply

อีเมล์ของคุณจะไม่แสดงให้เห็น Your email address will not be published.

%d bloggers like this: