[MINI Super-HQ] Stand by Me (1986) สแตนด์บายมี แด่เราและเพื่อน [1080p] [พากย์ไทย 2.0 + เสียงอังกฤษ DTS] [บรรยายไทย + อังกฤษ] [เสียงไทย + ซับไทย] [OPENLOAD]

0

โหลดหนัง Stand by Me (1986) สแตนด์บายมี แด่เราและเพื่อน

Stand by Me (1986) 1h 29min | Adventure, Drama | 26 November 1986 (USA) Summary: After the death of one of his friends, a writer recounts a boyhood journey with his friends to find the body of a missing boy.
Countries: USALanguages: English

เรื่องย่อ Stand by Me (1986) สแตนด์บายมี แด่เราและเพื่อน

หนังเล่าเรื่องของเพื่อนซี้สี่เด็กหนุ่มอันประกอบไปด้วย กอร์ดี้ ลาแชนซ์ (Wil Wheaton), คริส แชมเบอร์ส (River Phoenix), เท็ดดี้ (Corey Feldman) และ เวิร์น เทสสิโอ้ (Jerry O Connell) ที่ไปรู้มาว่าเพื่อนนักเรียนคนหนึ่งโดนรถไฟชนตาย แต่ยังไม่มีใครหาศพพบคาดว่าน่าจะยังอยู่ที่ใดที่หนึ่งในป่าใกล้ๆ ทางรถไฟนั้น ทั้งสี่เลยอยากลองผจญภัยซักครั้งด้วยความอยากรู้อยากเห็น เลยเดินป่าไปดูศพ แล้วระหว่างทางพวกเขาก็ได้เรียนรู้กันและกันทั้งในเรื่องของพวกเขาเอง และบทเรียนของชีวิตที่ไม่ได้มีสอนไว้ในตำราเล่มใดๆ

Complete name : [MINI Super-HQ]_Stand.By.Me.1986.1080p.BrRip.DTS.x264.One2loadup.com.mkv
Format : Matroska
Format version : Version 2
File size : 3.57 GiB
Duration : 1 h 28 min
Overall bit rate : 5 756 kb/s
Movie name : [MINI Super-HQ]_Stand.By.Me.1986.1080p.BrRip.DTS.x264.One2loadup.com
Encoded date : UTC 2016-11-19 03:08:31
Writing application : mkvmerge v5.8.0 (‘No Sleep / Pillow’) built on Sep 2 2012 15:37:04
Writing library : libebml v1.2.3 + libmatroska v1.3.0

Video
ID : 1
Format : AVC
Format/Info : Advanced Video Codec
Format profile : [email protected]
Format settings : CABAC / 4 Ref Frames
Format settings, CABAC : Yes
Format settings, ReFrames : 4 frames
Codec ID : V_MPEG4/ISO/AVC
Duration : 1 h 28 min
Bit rate : 4 678 kb/s
Width : 1 920 pixels
Height : 1 040 pixels
Display aspect ratio : 1.85:1
Frame rate mode : Constant
Frame rate : 23.976 FPS
Color space : YUV
Chroma subsampling : 4:2:0
Bit depth : 8 bits
Scan type : Progressive
Bits/(Pixel*Frame) : 0.098
Stream size : 2.91 GiB (82%)
Title : [MINI Super-HQ]_Stand.By.Me.1986.1080p.BrRip.DTS.x264.One2loadup.com
Writing library : x264 core 144 r2525 40bb568
Encoding settings : cabac=1 / ref=4 / deblock=1:1:1 / analyse=0x3:0x113 / me=umh / subme=10 / psy=1 / psy_rd=1.00:0.00 / mixed_ref=1 / me_range=32 / chroma_me=1 / trellis=2 / 8x8dct=1 / cqm=0 / deadzone=21,11 / fast_pskip=1 / chroma_qp_offset=-4 / threads=6 / lookahead_threads=1 / sliced_threads=0 / nr=0 / decimate=1 / interlaced=0 / bluray_compat=0 / constrained_intra=0 / bframes=4 / b_pyramid=2 / b_adapt=1 / b_bias=0 / direct=3 / weightb=1 / open_gop=0 / weightp=2 / keyint=250 / keyint_min=23 / scenecut=40 / intra_refresh=0 / rc_lookahead=40 / rc=2pass / mbtree=1 / bitrate=4678 / ratetol=1.0 / qcomp=0.60 / qpmin=0 / qpmax=69 / qpstep=4 / cplxblur=20.0 / qblur=0.5 / vbv_maxrate=14000 / vbv_bufsize=14000 / nal_hrd=none / filler=0 / ip_ratio=1.40 / aq=1:1.00
Language : English
Default : Yes
Forced : Yes

Audio #1
ID : 2
Format : AC-3
Format/Info : Audio Coding 3
Commercial name : Dolby Digital
Codec ID : A_AC3
Duration : 1 h 28 min
Bit rate mode : Constant
Bit rate : 192 kb/s
Channel(s) : 2 channels
Channel layout : L R
Sampling rate : 48.0 kHz
Frame rate : 31.250 FPS (1536 SPF)
Bit depth : 16 bits
Compression mode : Lossy
Delay relative to video : 1 s 0 ms
Stream size : 122 MiB (3%)
Title : THAI VCD 2.0 @ 192 Kbps
Language : Thai
Service kind : Complete Main
Default : Yes
Forced : Yes

Audio #2
ID : 3
Format : DTS
Format/Info : Digital Theater Systems
Codec ID : A_DTS
Duration : 1 h 28 min
Bit rate mode : Constant
Bit rate : 755 kb/s
Channel(s) : 6 channels
Channel layout : C L R Ls Rs LFE
Sampling rate : 48.0 kHz
Frame rate : 93.750 FPS (512 SPF)
Bit depth : 24 bits
Compression mode : Lossy
Stream size : 480 MiB (13%)
Title : ENG DTS 5.1 @ 755 Kbps
Language : English
Default : No
Forced : No

Text #1
ID : 4
Format : VobSub
Codec ID : S_VOBSUB
Codec ID/Info : Picture based subtitle format used on DVDs
Title : THAI 1080p From BluRay Master
Language : Thai
Default : Yes
Forced : Yes

Text #2
ID : 5
Format : VobSub
Codec ID : S_VOBSUB
Codec ID/Info : Picture based subtitle format used on DVDs
Title : THAI 1080p Yellow
Language : Thai
Default : No
Forced : No

Text #3
ID : 6
Format : VobSub
Codec ID : S_VOBSUB
Codec ID/Info : Picture based subtitle format used on DVDs
Title : THAI 1080p Out
Language : Thai
Default : No
Forced : No

Text #4
ID : 7
Format : PGS
Codec ID : S_HDMV/PGS
Codec ID/Info : Picture based subtitle format used on BDs/HD-DVDs
Title : THAI PGS 1080p From BluRay Master
Language : Thai
Default : No
Forced : No

Text #5
ID : 8
Format : PGS
Codec ID : S_HDMV/PGS
Codec ID/Info : Picture based subtitle format used on BDs/HD-DVDs
Title : THAI PGS 1080p Out
Language : Thai
Default : No
Forced : No

Text #6
ID : 9
Format : PGS
Codec ID : S_HDMV/PGS
Codec ID/Info : Picture based subtitle format used on BDs/HD-DVDs
Title : ENG PGS 1080p From BluRay Master
Language : English
Default : No
Forced : No

Menu
00:00:00.000 : en:00:03:58.238
00:06:29.305 : en:00:10:28.127
00:14:10.057 : en:00:18:08.879
00:16:56.557 : en:00:20:55.379
00:24:40.354 : en:00:28:39.176
00:31:52.369 : en:00:35:51.191
00:36:30.939 : en:00:40:29.761
00:42:04.730 : en:00:46:03.552
00:52:42.868 : en:00:56:41.690
00:59:29.357 : en:01:03:28.179
01:03:12.872 : en:01:07:11.694
01:07:35.385 : en:01:11:34.207
01:09:55.233 : en:01:13:54.055
01:14:19.163 : en:01:18:17.985
01:19:13.082 : en:01:23:11.904
01:22:19.101 : en:01:26:17.923

DOWNLOAD


PART01 |||| PART02 |||| PART03 |||| PART04

PART01 |||| PART02 |||| PART03 |||| PART04

PART01 |||| PART02 |||| PART03 |||| PART04

PART01 |||| PART02 |||| PART03 |||| PART04


Leave A Reply

Your email address will not be published.