[MINI Super-HQ] Spiral: From the Book of Saw (2021) เกมลอกอำมหิต [1080p] [พากย์ไทย 5.1 + เสียงอังกฤษ DTS] [บรรยายไทย + อังกฤษ] [เสียงไทย + ซับไทย] [DOSYAUPLOAD]

0

โหลดหนัง Spiral: From the Book of Saw (2021) เกมลอกอำมหิต

Spiral (2021) 93min | Crime, Horror, Mystery, Thriller | May 14, 2021 (United States) Summary: A criminal mastermind unleashes a twisted form of justice in Spiral, the terrifying new chapter from the book of Saw.
Countries: United States, CanadaLanguages: English

เรื่องย่อ Spiral: From the Book of Saw (2021) เกมลอกอำมหิต

เรื่องราวของนักสืบจอมห้าว เอเซเกล ซีค แบงก์ส (คริส ร็อค) ที่มักจะโดนเปรียบเทียบกับพ่อเขา (ซามูเอล แอล. แจ็กสัน) ตำรวจระดับตำนานอยู่เสมอ เขาต้องมาร่วมมือกับคู่หูเด็กใหม่ (แม็กซ์ มิงเกลล่า) เพื่อไขคดีฆาตกรรมต่อเนื่องซึ่งอาจมีส่วนเกี่ยวโยงกับคดีเขย่าขวัญในอดีต เมื่อต้องเผชิญกับปริศนาสุดซับซ้อนเซเก้ค้นผบว่าตัวเขากำลังเดินสู่กับดักแสนวิปริตของฆาตกรผู้นี้!!!

Complete name : [MIN Super-HQ]_Spiral.From.the.Book.of.Saw.2021.1080p.BrRip.DTS.x264.One2loadup.com.mkv
Format : Matroska
Format version : Version 4
File size : 3.88 GiB
Duration : 1 h 33 min
Overall bit rate : 5 972 kb/s
Movie name : [MIN Super-HQ]_Spiral.From.the.Book.of.Saw.2021.1080p.BrRip.DTS.x264.One2loadup.com
Encoded date : UTC 2022-05-17 06:59:02
Writing application : mkvmerge v9.8.0 (‘Kuglblids’) 64bit
Writing library : libebml v1.3.4 + libmatroska v1.4.5

Video
ID : 1
Format : AVC
Format/Info : Advanced Video Codec
Format profile : [email protected]
Format settings : CABAC / 4 Ref Frames
Format settings, CABAC : Yes
Format settings, Reference : 4 frames
Codec ID : V_MPEG4/ISO/AVC
Duration : 1 h 33 min
Bit rate : 4 600 kb/s
Width : 1 920 pixels
Height : 804 pixels
Display aspect ratio : 2.40:1
Frame rate mode : Constant
Frame rate : 23.976 (24000/1001) FPS
Color space : YUV
Chroma subsampling : 4:2:0
Bit depth : 8 bits
Scan type : Progressive
Bits/(Pixel*Frame) : 0.124
Stream size : 2.99 GiB (77%)
Title : [MIN Super-HQ]_Spiral.From.the.Book.of.Saw.2021.1080p.BrRip.DTS.x264.One2loadup.com
Writing library : x264 core 146 r2538 121396c
Encoding settings : cabac=1 / ref=5 / deblock=1:-3:-3 / analyse=0x3:0x133 / me=tesa / subme=11 / psy=1 / psy_rd=1.00:0.15 / mixed_ref=1 / me_range=48 / chroma_me=1 / trellis=2 / 8x8dct=1 / cqm=0 / deadzone=21,11 / fast_pskip=1 / chroma_qp_offset=-3 / threads=54 / lookahead_threads=4 / sliced_threads=0 / nr=0 / decimate=1 / interlaced=0 / bluray_compat=1 / constrained_intra=0 / bframes=3 / b_pyramid=1 / b_adapt=2 / b_bias=0 / direct=3 / weightb=1 / open_gop=0 / weightp=1 / keyint=250 / keyint_min=1 / scenecut=40 / intra_refresh=0 / rc_lookahead=60 / rc=2pass / mbtree=1 / bitrate=4600 / ratetol=1.0 / qcomp=0.60 / qpmin=0 / qpmax=69 / qpstep=4 / cplxblur=20.0 / qblur=0.5 / ip_ratio=1.40 / aq=1:1.30
Language : English
Default : Yes
Forced : No

Audio #1
ID : 2
Format : AC-3
Format/Info : Audio Coding 3
Commercial name : Dolby Digital
Codec ID : A_AC3
Duration : 1 h 33 min
Bit rate mode : Constant
Bit rate : 448 kb/s
Channel(s) : 6 channels
Channel layout : L R C LFE Ls Rs
Sampling rate : 48.0 kHz
Frame rate : 31.250 FPS (1536 SPF)
Compression mode : Lossy
Stream size : 298 MiB (8%)
Title : Thai 5.1 Master
Language : Thai
Service kind : Complete Main
Default : Yes
Forced : Yes

Audio #2
ID : 3
Format : DTS
Format/Info : Digital Theater Systems
Codec ID : A_DTS
Duration : 1 h 33 min
Bit rate mode : Constant
Bit rate : 755 kb/s
Channel(s) : 6 channels
Channel layout : C L R Ls Rs LFE
Sampling rate : 48.0 kHz
Frame rate : 93.750 FPS (512 SPF)
Bit depth : 24 bits
Compression mode : Lossy
Stream size : 502 MiB (13%)
Title : English DTS-5.1
Language : English
Default : No
Forced : No

Text #1
ID : 4
Format : PGS
Codec ID : S_HDMV/PGS
Codec ID/Info : Picture based subtitle format used on BDs/HD-DVDs
Duration : 1 h 32 min
Bit rate : 37.4 kb/s
Count of elements : 2426
Stream size : 24.8 MiB (1%)
Title : Thai 1080p PGS
Language : Thai
Default : Yes
Forced : Yes

Text #2
ID : 5
Format : VobSub
Codec ID : S_VOBSUB
Codec ID/Info : Picture based subtitle format used on DVDs
Duration : 1 h 32 min
Bit rate : 8 807 b/s
Count of elements : 1212
Stream size : 5.86 MiB (0%)
Title : Thai 1080p
Language : Thai
Default : No
Forced : No

Text #3
ID : 6
Format : PGS
Codec ID : S_HDMV/PGS
Codec ID/Info : Picture based subtitle format used on BDs/HD-DVDs
Duration : 1 h 32 min
Bit rate : 36.0 kb/s
Count of elements : 2426
Stream size : 24.0 MiB (1%)
Title : Thai 1080p Out PGS
Language : Thai
Default : No
Forced : No

Text #4
ID : 7
Format : VobSub
Codec ID : S_VOBSUB
Codec ID/Info : Picture based subtitle format used on DVDs
Duration : 1 h 32 min
Bit rate : 8 442 b/s
Count of elements : 1212
Stream size : 5.61 MiB (0%)
Title : Thai 1080p Out
Language : Thai
Default : No
Forced : No

Text #5
ID : 8
Format : VobSub
Codec ID : S_VOBSUB
Codec ID/Info : Picture based subtitle format used on DVDs
Duration : 1 h 32 min
Bit rate : 12.0 kb/s
Count of elements : 1212
Stream size : 7.96 MiB (0%)
Title : Thai 1080p Big [Yellow]
Language : Thai
Default : No
Forced : No

Text #6
ID : 9
Format : PGS
Codec ID : S_HDMV/PGS
Codec ID/Info : Picture based subtitle format used on BDs/HD-DVDs
Duration : 1 h 25 min
Bit rate : 37.0 kb/s
Count of elements : 2304
Stream size : 22.7 MiB (1%)
Title : English
Language : English
Default : No
Forced : No

Text #7
ID : 10
Format : PGS
Codec ID : S_HDMV/PGS
Codec ID/Info : Picture based subtitle format used on BDs/HD-DVDs
Duration : 1 h 26 min
Bit rate : 42.9 kb/s
Count of elements : 2686
Stream size : 26.5 MiB (1%)
Title : English [SDH]
Language : English
Default : No
Forced : No

Menu
00:00:00.000 : en:00:00:00.000
00:05:45.428 : en:00:05:45.428
00:11:25.476 : en:00:11:25.476
00:16:56.599 : en:00:16:56.599
00:23:20.190 : en:00:23:20.190
00:27:47.416 : en:00:27:47.416
00:34:08.213 : en:00:34:08.213
00:38:44.656 : en:00:38:44.656
00:45:15.171 : en:00:45:15.171
00:49:44.315 : en:00:49:44.315
00:55:25.489 : en:00:55:25.489
00:59:14.217 : en:00:59:14.217
01:06:47.295 : en:01:06:47.295
01:09:19.072 : en:01:09:19.072
01:15:18.723 : en:01:15:18.723
01:20:22.818 : en:01:20:22.818

DOWNLOAD


PART01 |||| PART02 |||| PART03 |||| PART04

PART01 |||| PART02 |||| PART03 |||| PART04

PART01 |||| PART02 |||| PART03 |||| PART04

PART01 |||| PART02 |||| PART03 |||| PART04

PART01 |||| PART02 |||| PART03 |||| PART04


Leave A Reply

อีเมล์ของคุณจะไม่แสดงให้เห็น Your email address will not be published.

%d bloggers like this: