[MINI Super-HQ] Speed 2: Cruise Control (1997) เร็วกว่านรก ภาค 2 [1080p] [พากย์ไทย 2.0 + เสียงอังกฤษ 5.1] [บรรยายไทย + อังกฤษ] [เสียงไทย + ซับไทย] [PANDAFILE]

0

โหลดหนัง Speed 2: Cruise Control (1997) เร็วกว่านรก ภาค 2

Speed 2: Cruise Control (1997) 2h 1min | Action, Adventure, Crime | 13 June 1997 (USA) Summary: A computer hacker breaks into the computer system of the Seabourn Legend cruise liner and sets it speeding on a collision course into a gigantic oil tanker.
Countries: USALanguages: English, American Sign Language, Portuguese

เรื่องย่อ Speed 2: Cruise Control (1997) เร็วกว่านรก ภาค 2

เกาะให้แน่น เพราะสปีดครั้งนี้โถมกระแทกคลื่น แซนดร้า บูลล็อค กลับมาอีกครั้งในบทที่ส่งให้ชื่อของเธอพุ่งสู่จุดสูง สุด… แอนนี่ พอร์เตอร์ รู้สึกตื่นเต้นในการเดินทางท่องทะเลแคริบเบี้ยน พร้อมกับแฟนหนุ่ม (เจสัน แพทริค) บนเรือสำราญลำหรูที่สุดในโลก แต่การท่องทะเลสวรรค์พลันเปลี่ยนเป็นนรก เมื่ออัจฉริยะคอมพิวเตอร์ผู้บ้าคลั่ง (วิลเล็ม ดาโฟ) ยึดเรือลำนี้ไว้ พร้อมตั้งระบบบังคับการล่องทะเลพุ่งสู่หายนะ!!

Complete name : [MINI Super-HQ]_2.Speed.2.Cruise.Control.1997.1080p.BrRip.AC3.x264.One2loadup.com.mkv
Format : Matroska
Format version : Version 4
File size : 4.14 GiB
Duration : 2 h 5 min
Overall bit rate : 4 738 kb/s
Movie name : [MINI Super-HQ]_2.Speed.2.Cruise.Control.1997.1080p.BrRip.AC3.x264.One2loadup.com
Encoded date : UTC 2015-07-23 10:45:01
Writing application : mkvmerge v8.1.0 (‘Psychedelic Postcard’) 32bit
Writing library : libebml v1.3.1 + libmatroska v1.4.2
Cover : Yes
Attachments : cover_land.png / cover.png

Video
ID : 1
Format : AVC
Format/Info : Advanced Video Codec
Format profile : H[email protected]
Format settings : CABAC / 4 Ref Frames
Format settings, CABAC : Yes
Format settings, ReFrames : 4 frames
Codec ID : V_MPEG4/ISO/AVC
Duration : 2 h 5 min
Bit rate : 3 971 kb/s
Width : 1 920 pixels
Height : 798 pixels
Display aspect ratio : 2.40:1
Frame rate mode : Constant
Frame rate : 23.976 (24000/1001) FPS
Color space : YUV
Chroma subsampling : 4:2:0
Bit depth : 8 bits
Scan type : Progressive
Bits/(Pixel*Frame) : 0.108
Stream size : 3.47 GiB (84%)
Title : [MINI Super-HQ]_2.Speed.2.Cruise.Control.1997.1080p.BrRip.AC3.x264.One2loadup.com
Writing library : x264 core 142 r2491 24e4fed
Encoding settings : cabac=1 / ref=4 / deblock=1:-1:-1 / analyse=0x3:0x133 / me=umh / subme=11 / psy=1 / psy_rd=1.00:0.00 / mixed_ref=1 / me_range=64 / chroma_me=1 / trellis=2 / 8x8dct=1 / cqm=0 / deadzone=21,11 / fast_pskip=1 / chroma_qp_offset=-2 / threads=12 / lookahead_threads=1 / sliced_threads=0 / nr=0 / decimate=1 / interlaced=0 / bluray_compat=0 / constrained_intra=0 / bframes=16 / b_pyramid=2 / b_adapt=1 / b_bias=0 / direct=1 / weightb=1 / open_gop=0 / weightp=2 / keyint=240 / keyint_min=24 / scenecut=40 / intra_refresh=0 / rc_lookahead=125 / rc=crf / mbtree=1 / crf=23.7 / qcomp=0.60 / qpmin=0 / qpmax=69 / qpstep=4 / vbv_maxrate=25000 / vbv_bufsize=31000 / crf_max=0.0 / nal_hrd=none / filler=0 / ip_ratio=1.40 / aq=1:1.20
Language : English
Default : Yes
Forced : No

Audio #1
ID : 2
Format : AC-3
Format/Info : Audio Coding 3
Commercial name : Dolby Digital
Codec ID : A_AC3
Duration : 2 h 5 min
Bit rate mode : Constant
Bit rate : 224 kb/s
Channel(s) : 2 channels
Channel layout : L R
Sampling rate : 48.0 kHz
Frame rate : 31.250 FPS (1536 SPF)
Bit depth : 16 bits
Compression mode : Lossy
Stream size : 201 MiB (5%)
Title : AC3
Language : Thai
Service kind : Complete Main
Default : Yes
Forced : Yes

Audio #2
ID : 3
Format : AC-3
Format/Info : Audio Coding 3
Commercial name : Dolby Digital
Codec ID : A_AC3
Duration : 2 h 5 min
Bit rate mode : Constant
Bit rate : 448 kb/s
Channel(s) : 6 channels
Channel layout : L R C LFE Ls Rs
Sampling rate : 48.0 kHz
Frame rate : 31.250 FPS (1536 SPF)
Bit depth : 16 bits
Compression mode : Lossy
Stream size : 401 MiB (9%)
Title : AC3
Language : English
Service kind : Complete Main
Default : No
Forced : No

Text #1
ID : 4
Format : VobSub
Codec ID : S_VOBSUB
Codec ID/Info : Picture based subtitle format used on DVDs
Title : 1080P
Language : Thai
Default : Yes
Forced : Yes

Text #2
ID : 5
Format : VobSub
Codec ID : S_VOBSUB
Codec ID/Info : Picture based subtitle format used on DVDs
Title : 1080P YELLOW
Language : Thai
Default : No
Forced : No

Text #3
ID : 6
Format : VobSub
Codec ID : S_VOBSUB
Codec ID/Info : Picture based subtitle format used on DVDs
Title : 1080P UNDER
Language : Thai
Default : No
Forced : No

Text #4
ID : 7
Format : VobSub
Codec ID : S_VOBSUB
Codec ID/Info : Picture based subtitle format used on DVDs
Title : 480P
Language : Thai
Default : No
Forced : No

Text #5
ID : 8
Format : PGS
Codec ID : S_HDMV/PGS
Codec ID/Info : Picture based subtitle format used on BDs/HD-DVDs
Title : BD MASTER
Language : Thai
Default : No
Forced : No

Text #6
ID : 9
Format : PGS
Codec ID : S_HDMV/PGS
Codec ID/Info : Picture based subtitle format used on BDs/HD-DVDs
Title : BD UNDER
Language : Thai
Default : No
Forced : No

Text #7
ID : 10
Format : PGS
Codec ID : S_HDMV/PGS
Codec ID/Info : Picture based subtitle format used on BDs/HD-DVDs
Title : BD MASTER
Language : English
Default : No
Forced : No

Menu
00:00:00.000 : en:Main Titles
00:00:57.974 : en:Road Games
00:01:50.193 : en:Driving Test
00:06:46.739 : en:The S.W.A.T. Team
00:09:10.550 : en:Welcome to Paradise
00:14:39.003 : en:A Golf Enthusiast
00:16:03.212 : en:Signs and Signals
00:20:29.144 : en:The Set-Up
00:25:15.639 : en:Annie’s Apprehension
00:28:27.747 : en:Nightfall
00:32:22.398 : en:Under Siege
00:37:16.150 : en:Playing With Fire
00:40:35.516 : en:Abandon Ship
00:44:36.131 : en:The Last Lifeboat
00:52:38.613 : en:A Very Sick Boy
00:55:12.726 : en:Annie Takes Charge
00:58:46.147 : en:Flooding the Ship
01:05:23.920 : en:Going After Geiger
01:08:47.832 : en:The Grenade
01:12:48.530 : en:Collision Course
01:15:51.380 : en:Slowing Her Down
01:18:48.724 : en:Under the Ship
01:21:49.821 : en:Geiger’s Hostage
01:24:46.498 : en:Jumping Ship
01:29:00.043 : en:The Bow Thrusters
01:31:54.050 : en:Hit or Miss
01:35:10.079 : en:Coming Into Port
01:43:51.892 : en:She’s Stopped
01:47:56.887 : en:The Chase
01:53:00.565 : en:Geiger’s Headache
01:55:45.647 : en:A Lifetime Deal
01:57:01.806 : en:End Titles

DOWNLOAD


PART01 |||| PART02 |||| PART03 |||| PART04 |||| PART05

PART01 |||| PART02 |||| PART03 |||| PART04 |||| PART05

PART01 |||| PART02 |||| PART03 |||| PART04 |||| PART05

PART01 |||| PART02 |||| PART03 |||| PART04 |||| PART05

PART01 |||| PART02 |||| PART03 |||| PART04 |||| PART05



แจ้งหนังเสีย หรือโหลดไม่ได้ ทั้งลิ้งฟรีและ vip สามารถกดที่รูปด้านบนนี้ได้เลย

: Disable Comments
%d bloggers like this: