[MINI Super-HQ] Space Jam: A New Legacy (2021) สเปซแจม: สืบทอดตำนานใหม่ [1080p] [พากย์ไทย 5.1 + เสียงอังกฤษ DTS] [บรรยายไทย + อังกฤษ] [เสียงไทย + ซับไทย] [USERLOAD]

0

โหลดหนัง Space Jam: A New Legacy (2021) สเปซแจม: สืบทอดตำนานใหม่

Space Jam: A New Legacy (2021) 115min | Animation, Adventure, Comedy, Family, Fantasy, Sci-Fi, Sport | July 16, 2021 (United States) Summary: A rogue artificial intelligence kidnaps the son of famed basketball player LeBron James, who then has to work with Bugs Bunny to win a basketball game.
Countries: United StatesLanguages: English

เรื่องย่อ Space Jam: A New Legacy (2021) สเปซแจม: สืบทอดตำนานใหม่

เลอบรอน เจมส์) และ ดอม (เซดริก โจ) ลูกชายของเขาติดอยู่ในมิติแห่งโลกดิจิตอลโดยฝีมือของ หุ่นยนต์เอไอตัวร้ายเลอบรอน มีทางเลือกเดียวที่จะสามารถพาผู้เป็นที่รักกลับบ้านได้อย่างปลอดภัยนั่นก็คือรวมตัว บั๊ก และ โลล่า บันนี่ กับชาวแก๊งลูนีย์ ทูนส์ที่เลื่องชื่อในความวายป่วงเพื่อเอาชนะหุ่นยนต์แชมป์เปี้ยนระดับโปรเพลย์เยอร์ ผู้เป็นเจ้าของทักษะกีฬาที่ไม่เคยมีใครเห็นมาก่อนในสนามแข่งขันบาสเก็ตบอลให้ได้แม้ว่าการแข่งขันครั้งนี้จะเป็นการเดิมพันที่ท้าทายที่สุดในชีวิต แต่นี่ก็อาจเป็นโอกาสให้ เลอบรอน ได้สานสัมพันธ์ครั้งใหม่กับลูกชายของเขาให้แน่นแฟ้นมากยิ่งขึ้น!!!

Complete name : [MINI Super-HQ]_Space.Jam.A.New.Legacy.2021.1080p.BrRip.DTS.x264.One2loadup.com.mkv
Format : Matroska
Format version : Version 4
File size : 4.02 GiB
Duration : 1 h 55 min
Overall bit rate : 4 985 kb/s
Movie name : [MINI Super-HQ]_Space.Jam.A.New.Legacy.2021.1080p.BrRip.DTS.x264.One2loadup.com
Encoded date : UTC 2021-10-06 05:59:49
Writing application : mkvmerge v9.8.0 (‘Kuglblids’) 64bit
Writing library : libebml v1.3.4 + libmatroska v1.4.5

Video
ID : 1
Format : AVC
Format/Info : Advanced Video Codec
Format profile : [email protected]
Format settings : CABAC / 4 Ref Frames
Format settings, CABAC : Yes
Format settings, Reference : 4 frames
Codec ID : V_MPEG4/ISO/AVC
Duration : 1 h 55 min
Bit rate : 3 600 kb/s
Width : 1 920 pixels
Height : 1 036 pixels
Display aspect ratio : 1.85:1
Frame rate mode : Constant
Frame rate : 23.976 (24000/1001) FPS
Color space : YUV
Chroma subsampling : 4:2:0
Bit depth : 8 bits
Scan type : Progressive
Bits/(Pixel*Frame) : 0.075
Stream size : 2.90 GiB (72%)
Title : [MINI Super-HQ]_Space.Jam.A.New.Legacy.2021.1080p.BrRip.DTS.x264.One2loadup.com
Writing library : x264 core 146 r2538 121396c
Encoding settings : cabac=1 / ref=5 / deblock=1:-3:-3 / analyse=0x3:0x133 / me=tesa / subme=11 / psy=1 / psy_rd=0.40:0.00 / mixed_ref=1 / me_range=48 / chroma_me=1 / trellis=2 / 8x8dct=1 / cqm=0 / deadzone=21,11 / fast_pskip=1 / chroma_qp_offset=-2 / threads=54 / lookahead_threads=4 / sliced_threads=0 / nr=0 / decimate=1 / interlaced=0 / bluray_compat=1 / constrained_intra=0 / bframes=3 / b_pyramid=1 / b_adapt=2 / b_bias=0 / direct=3 / weightb=1 / open_gop=0 / weightp=1 / keyint=250 / keyint_min=1 / scenecut=40 / intra_refresh=0 / rc_lookahead=60 / rc=2pass / mbtree=1 / bitrate=3600 / ratetol=1.0 / qcomp=0.60 / qpmin=0 / qpmax=69 / qpstep=4 / cplxblur=20.0 / qblur=0.5 / ip_ratio=1.40 / aq=1:1.30
Language : English
Default : Yes
Forced : No

Audio #1
ID : 2
Format : AC-3
Format/Info : Audio Coding 3
Commercial name : Dolby Digital
Codec ID : A_AC3
Duration : 1 h 55 min
Bit rate mode : Constant
Bit rate : 448 kb/s
Channel(s) : 6 channels
Channel layout : L R C LFE Ls Rs
Sampling rate : 48.0 kHz
Frame rate : 31.250 FPS (1536 SPF)
Compression mode : Lossy
Stream size : 370 MiB (9%)
Title : Thai 5.1 Master
Language : Thai
Service kind : Complete Main
Default : Yes
Forced : Yes

Audio #2
ID : 3
Format : DTS
Format/Info : Digital Theater Systems
Codec ID : A_DTS
Duration : 1 h 55 min
Bit rate mode : Constant
Bit rate : 755 kb/s
Channel(s) : 6 channels
Channel layout : C L R Ls Rs LFE
Sampling rate : 48.0 kHz
Frame rate : 93.750 FPS (512 SPF)
Bit depth : 24 bits
Compression mode : Lossy
Stream size : 623 MiB (15%)
Title : English DTS-5.1
Language : English
Default : No
Forced : No

Text #1
ID : 4
Format : PGS
Codec ID : S_HDMV/PGS
Codec ID/Info : Picture based subtitle format used on BDs/HD-DVDs
Duration : 1 h 55 min
Bit rate : 47.7 kb/s
Count of elements : 3972
Stream size : 39.4 MiB (1%)
Title : Thai 1080p PGS
Language : Thai
Default : Yes
Forced : Yes

Text #2
ID : 5
Format : VobSub
Codec ID : S_VOBSUB
Codec ID/Info : Picture based subtitle format used on DVDs
Duration : 1 h 55 min
Bit rate : 11.2 kb/s
Count of elements : 1984
Stream size : 9.27 MiB (0%)
Title : Thai 1080p
Language : Thai
Default : No
Forced : No

Text #3
ID : 6
Format : PGS
Codec ID : S_HDMV/PGS
Codec ID/Info : Picture based subtitle format used on BDs/HD-DVDs
Duration : 1 h 55 min
Bit rate : 45.9 kb/s
Count of elements : 3972
Stream size : 37.8 MiB (1%)
Title : Thai 1080p Out PGS
Language : Thai
Default : No
Forced : No

Text #4
ID : 7
Format : VobSub
Codec ID : S_VOBSUB
Codec ID/Info : Picture based subtitle format used on DVDs
Duration : 1 h 55 min
Bit rate : 10.7 kb/s
Count of elements : 1984
Stream size : 8.85 MiB (0%)
Title : Thai 1080p Out
Language : Thai
Default : No
Forced : No

Text #5
ID : 8
Format : VobSub
Codec ID : S_VOBSUB
Codec ID/Info : Picture based subtitle format used on DVDs
Duration : 1 h 55 min
Bit rate : 15.3 kb/s
Count of elements : 1984
Stream size : 12.6 MiB (0%)
Title : Thai 1080p Big [Yellow]
Language : Thai
Default : No
Forced : No

Text #6
ID : 9
Format : PGS
Codec ID : S_HDMV/PGS
Codec ID/Info : Picture based subtitle format used on BDs/HD-DVDs
Duration : 1 h 55 min
Bit rate : 52.0 kb/s
Count of elements : 4852
Stream size : 42.9 MiB (1%)
Title : English PGS BluRay Master
Language : English
Default : No
Forced : No

Text #7
ID : 10
Format : UTF-8
Codec ID : S_TEXT/UTF8
Codec ID/Info : UTF-8 Plain Text
Duration : 1 h 55 min
Bit rate : 66 b/s
Count of elements : 2113
Stream size : 56.4 KiB (0%)
Title : English SRT
Language : English
Default : No
Forced : No

Menu
00:00:00.000 : en:00:00:00.000
00:08:57.036 : en:00:08:57.036
00:14:28.493 : en:00:14:28.493
00:19:20.993 : en:00:19:20.993
00:25:11.176 : en:00:25:11.176
00:34:42.539 : en:00:34:42.539
00:42:10.695 : en:00:42:10.695
00:50:33.864 : en:00:50:33.864
00:56:00.732 : en:00:56:00.732
01:03:57.459 : en:01:03:57.459
01:08:39.824 : en:01:08:39.824
01:17:40.865 : en:01:17:40.865
01:24:07.209 : en:01:24:07.209
01:31:58.888 : en:01:31:58.888
01:39:33.050 : en:01:39:33.050
01:48:15.864 : en:01:48:15.864

DOWNLOAD


PART01 |||| PART02 |||| PART03 |||| PART04 |||| PART05

PART01 |||| PART02 |||| PART03 |||| PART04 |||| PART05

PART01 |||| PART02 |||| PART03 |||| PART04 |||| PART05

PART01 |||| PART02 |||| PART03 |||| PART04 |||| PART05

PART01 |||| PART02 |||| PART03 |||| PART04 |||| PART05


Leave A Reply

อีเมล์ของคุณจะไม่แสดงให้เห็น Your email address will not be published.

%d bloggers like this: