[MINI Super-HQ] Snake Eyes: G.I. Joe Origins (2021) จี.ไอ.โจ สเนคอายส์ [1080p] [AMAZON] [พากย์อังกฤษ 5.1] [Soundtrack บรรยายไทย + อังกฤษ] [เสียงอังกฤษ + ซับไทย] [USERLOAD]

0

โหลดหนัง Snake Eyes: G.I. Joe Origins (2021) จี.ไอ.โจ สเนคอายส์

Snake Eyes 121min | Action, Adventure, Fantasy, Sci-Fi, Thriller | July 23, 2021 (United States) Summary: A G.I. Joe spin-off centered around the character of Snake Eyes.
Countries: Canada, United StatesLanguages: English

เรื่องย่อ Snake Eyes: G.I. Joe Origins (2021) จี.ไอ.โจ สเนคอายส์

นำแสดงโดย เฮนรี โกลดิง รับบท สเนค อายส์ ผู้อยู่อย่างสันโดษซึ่งมีความมุ่งมั่น เขาได้รับการต้อนรับสู่กลุ่มที่สนใจเรื่องเกี่ยวกับญ ี่ปุ่นโบราณที่เรียกว่า อาราชิคาเกะ หลังจากช่วยชีวิตทายาทของพวกเขาไว้ เมื่อมาถึงญี่ปุ่น อาราชิคาเกะ ได้สอน สเนค อายส์ ให้รู้ถึงวิถีของนักรบนินจา ในขณะเดียวกันก็จัดหาสิ่งที่เขาใฝ่ฝันหา นั่นก็คือบ้าน แต่เมื่อความลับจากอดีตถูกเปิดเผยเกียรติยศและความจงรักภักดีของ สเนค อายส์ จะถูกทดสอบ แม้ว่านั่นจะหมายถึงการสูญเสียความไว้วางใจจากผู้ที่ใกล้ชิดกับเขาที่สุด

Complete name : [MINI Super-HQ]_Snake.Eyes.G.I.Joe.Origins.2021.1080p.AMZN.WEB-DL.EAC3.x264.Subthai.One2loadup.com.mkv
Format : Matroska
Format version : Version 4
File size : 4.36 GiB
Duration : 2 h 1 min
Overall bit rate : 5 135 kb/s
Movie name : [MINI Super-HQ]_Snake.Eyes.G.I.Joe.Origins.2021.1080p.AMZN.WEB-DL.EAC3.x264.Subthai.One2loadup.com
Encoded date : UTC 2021-08-17 11:41:49
Writing application : mkvmerge v60.0.0 (‘Are We Copies?’) 64-bit
Writing library : libebml v1.4.2 + libmatroska v1.6.4

Video
ID : 1
Format : AVC
Format/Info : Advanced Video Codec
Format profile : [email protected]
Format settings : CABAC / 3 Ref Frames
Format settings, CABAC : Yes
Format settings, Reference : 3 frames
Codec ID : V_MPEG4/ISO/AVC
Duration : 2 h 1 min
Bit rate : 4 353 kb/s
Width : 1 920 pixels
Height : 800 pixels
Display aspect ratio : 2.40:1
Frame rate mode : Constant
Frame rate : 23.976 (24000/1001) FPS
Color space : YUV
Chroma subsampling : 4:2:0
Bit depth : 8 bits
Scan type : Progressive
Bits/(Pixel*Frame) : 0.118
Stream size : 3.69 GiB (85%)
Title : [MINI Super-HQ]_Snake.Eyes.G.I.Joe.Origins.2021.1080p.AMZN.WEB-DL.EAC3.x264.Subthai.One2loadup.com
Language : English
Default : Yes
Forced : No
Color range : Limited
Color primaries : BT.709
Transfer characteristics : BT.709
Matrix coefficients : BT.709

Audio
ID : 2
Format : E-AC-3 JOC
Format/Info : Enhanced AC-3 with Joint Object Coding
Commercial name : Dolby Digital Plus with Dolby Atmos
Codec ID : A_EAC3
Duration : 2 h 1 min
Bit rate mode : Constant
Bit rate : 768 kb/s
Channel(s) : 6 channels
Channel layout : L R C LFE Ls Rs
Sampling rate : 48.0 kHz
Frame rate : 31.250 FPS (1536 SPF)
Compression mode : Lossy
Stream size : 667 MiB (15%)
Title : E-AC3 Atmos English
Language : English
Service kind : Complete Main
Default : Yes
Forced : No
Complexity index : 16
Number of dynamic objects : 15
Bed channel count : 1 channel
Bed channel configuration : LFE

Text #1
ID : 3
Format : VobSub
Muxing mode : zlib
Codec ID : S_VOBSUB
Codec ID/Info : Picture based subtitle format used on DVDs
Duration : 1 h 52 min
Bit rate : 6 623 b/s
Count of elements : 807
Stream size : 5.34 MiB (0%)
Title : Sub Thai 1080p
Language : Thai
Default : No
Forced : No

Text #2
ID : 4
Format : UTF-8
Codec ID : S_TEXT/UTF8
Codec ID/Info : UTF-8 Plain Text
Duration : 1 h 52 min
Bit rate : 68 b/s
Count of elements : 807
Stream size : 56.6 KiB (0%)
Title : Sub Thai SRT
Language : Thai
Default : No
Forced : No

Text #3
ID : 5
Format : PGS
Muxing mode : zlib
Codec ID : S_HDMV/PGS
Codec ID/Info : Picture based subtitle format used on BDs/HD-DVDs
Duration : 1 h 52 min
Bit rate : 18.9 kb/s
Count of elements : 1614
Stream size : 15.2 MiB (0%)
Title : Sub Thai PGS
Language : Thai
Default : Yes
Forced : No

Text #4
ID : 6
Format : UTF-8
Codec ID : S_TEXT/UTF8
Codec ID/Info : UTF-8 Plain Text
Duration : 1 h 52 min
Bit rate : 31 b/s
Count of elements : 978
Stream size : 25.7 KiB (0%)
Title : Sub English SRT
Language : English
Default : No
Forced : No

DOWNLOAD


PART01 |||| PART02 |||| PART03 |||| PART04 |||| PART05

PART01 |||| PART02 |||| PART03 |||| PART04 |||| PART05

PART01 |||| PART02 |||| PART03 |||| PART04 |||| PART05

PART01 |||| PART02 |||| PART03 |||| PART04 |||| PART05

PART01 |||| PART02 |||| PART03 |||| PART04 |||| PART05


Leave A Reply

อีเมล์ของคุณจะไม่แสดงให้เห็น Your email address will not be published.

%d bloggers like this: