[MINI Super-HQ] Skiptrace (2016) คู่ใหญ่สั่งมาฟัด [1080p] [พากย์ไทย 5.1 + เสียงอังกฤษ DTS] [บรรยายไทย + อังกฤษ] [เสียงไทย + ซับไทย] [OPENLOAD]

0

Skiptrace (2016)

โหลดหนัง Skiptrace (2016) คู่ใหญ่สั่งมาฟัด

Skiptrace | September 2, 2016 (United States) Summary: A detective from Hong Kong teams up with an American gambler to battle against a notorious Chinese criminal.
Countries: China, Hong Kong, Netherlands, United StatesLanguages: Mandarin, English, Russian, Mongolian, Spanish

เรื่องย่อ Skiptrace (2016) คู่ใหญ่สั่งมาฟัด

เล่าเรื่องของ เบนนี่ ชาน (เฉินหลง Jackie Chan) สายสืบชาวฮ่องกงที่กำลังตามล่าหัวหน้าแก๊งมาเฟียนามว่าวิคเตอร์ หว่อง (วินสตันส เชา Winston Chao) มานานกว่าทศวรรษ เมื่อหลานสาวของเขา ซาแมนธา (ฟ่านปิงปิง Fan BingBing) ต้องไปพัวพันกับองค์กรมาเฟียของหว่อง ซึ่งคนที่มีหลักฐานสามารถสาวถึงตัวเจ้าพ่อได้ นั่นคือนักพนันชาวอเมริกันจอมปากมาก คอนเนอร์ วัตส์(จอห์นนี่ น็อกซ์วิลล์ Johnny Knoxville) แต่ดันโดนแกงค์มาเฟียจับไป รัสเซีย ซึ่งเขาต้องการจะกลับ มาเก๊า ดังนั้นเบนนี่ จึงตามไปช่วยเหลือ คอนเนอร์ เพื่อเป็นพยานลากคอวิคเตอร์มาลงโทษ และช่วยเหลือซาแมนธาให้ได้ ภารกิจฟัด พ่วงความมันข้ามพรมแดนตั้งแต่เทือกเขาในมองโกเลียจนถ ึงทะเลทรายโกบี เรื่อยมาถึง มาเก๊า จึงอุบัติขึ้น!!!

Complete name : [MINI Super-HQ]_Skiptrace.2016.1080p.BrRip.DTS.x264.One2loadup.com.mkv
Format : Matroska
Format version : Version 4
File size : 3.88 GiB
Duration : 1 h 47 min
Overall bit rate : 5 152 kb/s
Movie name : [MINI Super-HQ]_Skiptrace.2016.1080p.BrRip.DTS.x264.One2loadup.com
Encoded date : UTC 2019-05-19 13:41:24
Writing application : mkvmerge v10.0.0 (‘To Drown In You’) 64bit
Writing library : libebml v1.3.4 + libmatroska v1.4.5

Video
ID : 1
Format : AVC
Format/Info : Advanced Video Codec
Format profile : [email protected]
Format settings : CABAC / 4 Ref Frames
Format settings, CABAC : Yes
Format settings, ReFrames : 4 frames
Codec ID : V_MPEG4/ISO/AVC
Duration : 1 h 47 min
Bit rate : 3 883 kb/s
Width : 1 920 pixels
Height : 800 pixels
Display aspect ratio : 2.40:1
Frame rate mode : Constant
Frame rate : 23.976 (24000/1001) FPS
Color space : YUV
Chroma subsampling : 4:2:0
Bit depth : 8 bits
Scan type : Progressive
Bits/(Pixel*Frame) : 0.105
Stream size : 2.92 GiB (75%)
Title : [MINI Super-HQ]_Skiptrace.2016.1080p.BrRip.DTS.x264.One2loadup.com
Writing library : x264 core 130 r2273 b3065e6
Encoding settings : cabac=1 / ref=3 / deblock=1:0:0 / analyse=0x3:0x113 / me=umh / subme=11 / psy=1 / psy_rd=1.00:0.00 / mixed_ref=1 / me_range=48 / chroma_me=1 / trellis=2 / 8x8dct=1 / cqm=0 / deadzone=21,11 / fast_pskip=1 / chroma_qp_offset=-2 / threads=10 / lookahead_threads=1 / sliced_threads=0 / nr=0 / decimate=1 / interlaced=0 / bluray_compat=0 / constrained_intra=0 / bframes=3 / b_pyramid=2 / b_adapt=1 / b_bias=0 / direct=1 / weightb=1 / open_gop=0 / weightp=2 / keyint=240 / keyint_min=24 / scenecut=40 / intra_refresh=0 / rc_lookahead=40 / rc=2pass / mbtree=1 / bitrate=3883 / ratetol=1.0 / qcomp=0.60 / qpmin=0 / qpmax=69 / qpstep=4 / cplxblur=20.0 / qblur=0.5 / ip_ratio=1.40 / aq=1:1.00
Language : English
Default : Yes
Forced : No
Color range : Limited
Color primaries : BT.709
Transfer characteristics : BT.709
Matrix coefficients : BT.709

Audio #1
ID : 2
Format : AC-3
Format/Info : Audio Coding 3
Commercial name : Dolby Digital
Codec ID : A_AC3
Duration : 1 h 47 min
Bit rate mode : Constant
Bit rate : 448 kb/s
Channel(s) : 6 channels
Channel layout : L R C LFE Ls Rs
Sampling rate : 48.0 kHz
Frame rate : 31.250 FPS (1536 SPF)
Bit depth : 16 bits
Compression mode : Lossy
Stream size : 345 MiB (9%)
Title : Thai 5.1 Master
Language : Thai
Service kind : Complete Main
Default : Yes
Forced : Yes

Audio #2
ID : 3
Format : DTS
Format/Info : Digital Theater Systems
Codec ID : A_DTS
Duration : 1 h 47 min
Bit rate mode : Constant
Bit rate : 755 kb/s
Channel(s) : 6 channels
Channel layout : C L R Ls Rs LFE
Sampling rate : 48.0 kHz
Frame rate : 93.750 FPS (512 SPF)
Bit depth : 24 bits
Compression mode : Lossy
Stream size : 581 MiB (15%)
Title : English DTS
Language : English
Default : No
Forced : No

Text #1
ID : 4
Format : VobSub
Muxing mode : zlib
Codec ID : S_VOBSUB
Codec ID/Info : Picture based subtitle format used on DVDs
Duration : 1 h 45 min
Bit rate : 1 456 b/s
Count of elements : 1144
Stream size : 1.10 MiB (0%)
Title : Thai 480p
Language : Thai
Default : No
Forced : No

Text #2
ID : 5
Format : VobSub
Muxing mode : zlib
Codec ID : S_VOBSUB
Codec ID/Info : Picture based subtitle format used on DVDs
Duration : 1 h 45 min
Bit rate : 2 347 b/s
Count of elements : 1144
Stream size : 1.77 MiB (0%)
Title : Thai 720p
Language : Thai
Default : No
Forced : No

Text #3
ID : 6
Format : VobSub
Muxing mode : zlib
Codec ID : S_VOBSUB
Codec ID/Info : Picture based subtitle format used on DVDs
Duration : 1 h 45 min
Bit rate : 3 781 b/s
Count of elements : 1144
Stream size : 2.86 MiB (0%)
Title : Thai 1080p
Language : Thai
Default : No
Forced : No

Text #4
ID : 7
Format : VobSub
Muxing mode : zlib
Codec ID : S_VOBSUB
Codec ID/Info : Picture based subtitle format used on DVDs
Duration : 1 h 45 min
Bit rate : 3 776 b/s
Count of elements : 1144
Stream size : 2.85 MiB (0%)
Title : Thai 1080p Yellow
Language : Thai
Default : No
Forced : No

Text #5
ID : 8
Format : VobSub
Muxing mode : zlib
Codec ID : S_VOBSUB
Codec ID/Info : Picture based subtitle format used on DVDs
Duration : 1 h 45 min
Bit rate : 3 793 b/s
Count of elements : 1144
Stream size : 2.87 MiB (0%)
Title : Thai 1080p Out
Language : Thai
Default : No
Forced : No

Text #6
ID : 9
Format : VobSub
Muxing mode : zlib
Codec ID : S_VOBSUB
Codec ID/Info : Picture based subtitle format used on DVDs
Duration : 1 h 45 min
Bit rate : 4 932 b/s
Count of elements : 1144
Stream size : 3.73 MiB (0%)
Title : Thai 1080p BIG
Language : Thai
Default : No
Forced : No

Text #7
ID : 10
Format : VobSub
Muxing mode : zlib
Codec ID : S_VOBSUB
Codec ID/Info : Picture based subtitle format used on DVDs
Duration : 1 h 45 min
Bit rate : 4 950 b/s
Count of elements : 1144
Stream size : 3.74 MiB (0%)
Title : Thai 1080p Out [BIG]
Language : Thai
Default : No
Forced : No

Text #8
ID : 11
Format : PGS
Muxing mode : zlib
Codec ID : S_HDMV/PGS
Codec ID/Info : Picture based subtitle format used on BDs/HD-DVDs
Duration : 1 h 45 min
Bit rate : 12.7 kb/s
Count of elements : 2288
Stream size : 9.62 MiB (0%)
Title : Thai PGS
Language : Thai
Default : Yes
Forced : Yes

Text #9
ID : 12
Format : PGS
Muxing mode : zlib
Codec ID : S_HDMV/PGS
Codec ID/Info : Picture based subtitle format used on BDs/HD-DVDs
Duration : 1 h 45 min
Bit rate : 13.1 kb/s
Count of elements : 2288
Stream size : 9.87 MiB (0%)
Title : Thai PGS Yellow
Language : Thai
Default : No
Forced : No

Text #10
ID : 13
Format : PGS
Muxing mode : zlib
Codec ID : S_HDMV/PGS
Codec ID/Info : Picture based subtitle format used on BDs/HD-DVDs
Duration : 1 h 45 min
Bit rate : 12.9 kb/s
Count of elements : 2288
Stream size : 9.72 MiB (0%)
Title : Thai PGS Out
Language : Thai
Default : No
Forced : No

Text #11
ID : 14
Format : VobSub
Muxing mode : zlib
Codec ID : S_VOBSUB
Codec ID/Info : Picture based subtitle format used on DVDs
Duration : 1 h 45 min
Bit rate : 1 524 b/s
Count of elements : 1168
Stream size : 1.15 MiB (0%)
Title : English
Language : English
Default : No
Forced : No

Menu
00:00:00.000 : en:Chapter 1
00:06:04.990 : en:Chapter 2
00:13:13.126 : en:Chapter 3
00:20:20.803 : en:Chapter 4
00:27:23.809 : en:Chapter 5
00:34:51.506 : en:Chapter 6
00:43:05.208 : en:Chapter 7
00:49:09.280 : en:Chapter 8
00:55:45.509 : en:Chapter 9
01:04:06.342 : en:Chapter 10
01:09:07.643 : en:Chapter 11
01:15:53.632 : en:Chapter 12
01:23:23.206 : en:Chapter 13
01:30:19.581 : en:Chapter 14
01:39:44.186 : en:Chapter 15
01:43:30.746 : en:Chapter 16

DOWNLOAD


PART01 |||| PART02 |||| PART03 |||| PART04

PART01 |||| PART02 |||| PART03 |||| PART04

PART01 |||| PART02 |||| PART03 |||| PART04

PART01 |||| PART02 |||| PART03 |||| PART04


Leave A Reply

อีเมล์ของคุณจะไม่แสดงให้เห็น Your email address will not be published.

%d bloggers like this: