[MINI Super-HQ] Shoplifters (2018) ครอบครัวที่ลัก [1080p] [WEB-DL] [พากย์ไทย 5.1 + เสียงญี่ปุ่น 5.1] [บรรยายไทย + อังกฤษ (ฝัง)] [เสียงไทย + ซับไทย] [OPENLOAD]

0

Shoplifters (2018) ครอบครัวที่ลัก

โหลดหนัง Shoplifters (2018) ครอบครัวที่ลัก

Manbiki kazoku (2018) 2h 1min | Crime, Drama | 13 December 2018 (Netherlands) Summary: A family of small-time crooks take in a child they find outside in the cold.
Countries: JapanLanguages: Japanese

เรื่องย่อ Shoplifters (2018) ครอบครัวที่ลัก

Shoplifters ภาพยนตร์ญี่ปุ่นดราม่าครอบครัวของผู้กำกับชื่อดัง ฮิโรคาสุ โคเรเอดะ เจ้าของรางวัลปาล์มทองคำจากเทศกาลภาพยนตร์เมืองคานส์ ปีล่าสุดเปิดตัวอันดับ 1 ใน Japan Box Office ประจำสุดสัปดาห์ และเป็นภาพยนตร์ญี่ปุ่นคนแสดงที่ทำรายได้ทะลุหลัก 1000 ล้านเยนเร็วที่สุดอีกด้วย โดยภาพยนตร์เรื่องนี้ ได้รับแรงบันดาลใจส่วนหนึ่งมาจากเหตุการณ์ที่เกิดขึ้ นจริงในญี่ปุ่นหนังเล่าเรื่องของ โอซามุ (ลิลี แฟรงกี้) นอกจากทำงานเป็นกรรมกรเขายังลักเล็กขโมยน้อยเป็นอาชีพเสริมด้วย โดยมีลูกชาย โชตะ (ไคริ จิโอ) เป็นผู้ช่วยวันหนึ่ง ขณะทั้งคู่กลับจากการขโมยของ โอซามุได้เจอกับ ยูริ (มิยู ซาซากิ) เด็กหญิงตัวน้อยอยู่ตัวคนเดียว เขาจึงตัดสินใจพาเธอกลับมาบ้านด้วยแม้ว่า โนบุโยะ (ซากุระ อันโดะ) ภรรยาของเขาจะไม่พอใจที่เขาพาเด็กที่ไหนไม่รู้มาอยู่ อาศัยด้วย ถึงอย่างนั้นตัวเธอและรวมถึงสมาชิกคนอื่น ๆ ในครอบครัวอย่าง อากิ (มายุ มัตสึโอกะ) น้องสาวของโนบุโยะ และ คุณยายฮัตสุเอะ (คิริน กีกิ) ก็ดูแลเด็กหญิงคนนี้เป็นอย่างดี ถึงแม้พวกเขาจะเป็นครอบครัวเล็ก ๆ แต่พวกเขาก็เป็นครอบครัวที่มีความสุข ทว่าในช่วงเวลาที่ทุกอย่างกำลังไปได้สวย ความลับบางอย่างก็เปิดเผยออกมาทำให้ทั้งครอบครัวต้อง สั่นคลอน!!!

Complete name : [MINI Super-HQ]_Shoplifters.2018.1080p.WEB-DL.AC3.x264.One2loadup.com.mkv
Format : Matroska
Format version : Version 4
File size : 3.79 GiB
Duration : 2 h 0 min
Overall bit rate : 4 493 kb/s
Movie name : [MINI Super-HQ]_Shoplifters.2018.1080p.WEB-DL.AC3.x264.One2loadup.com
Encoded date : UTC 2010-02-22 21:41:31
Writing application : mkvmerge v5.9.0 (‘On The Loose’) built on Dec 9 2012 15:37:01
Writing library : libebml v1.3.0 + libmatroska v1.4.0

Video
ID : 1
Format : AVC
Format/Info : Advanced Video Codec
Format profile : [email protected]
Format settings : CABAC / 4 Ref Frames
Format settings, CABAC : Yes
Format settings, ReFrames : 4 frames
Codec ID : V_MPEG4/ISO/AVC
Duration : 2 h 0 min
Bit rate : 3 334 kb/s
Width : 1 920 pixels
Height : 1 036 pixels
Display aspect ratio : 1.85:1
Frame rate mode : Constant
Frame rate : 23.976 (24000/1001) FPS
Color space : YUV
Chroma subsampling : 4:2:0
Bit depth : 8 bits
Scan type : Progressive
Bits/(Pixel*Frame) : 0.070
Stream size : 2.80 GiB (74%)
Title : [MINI Super-HQ]_Shoplifters.2018.1080p.WEB-DL.AC3.x264.One2loadup.com
Writing library : x264 core 130 r2273 b3065e6
Encoding settings : cabac=1 / ref=3 / deblock=1:0:0 / analyse=0x3:0x113 / me=umh / subme=11 / psy=1 / psy_rd=1.00:0.00 / mixed_ref=1 / me_range=48 / chroma_me=1 / trellis=2 / 8x8dct=1 / cqm=0 / deadzone=21,11 / fast_pskip=1 / chroma_qp_offset=-2 / threads=10 / lookahead_threads=1 / sliced_threads=0 / nr=0 / decimate=1 / interlaced=0 / bluray_compat=0 / constrained_intra=0 / bframes=3 / b_pyramid=2 / b_adapt=1 / b_bias=0 / direct=1 / weightb=1 / open_gop=0 / weightp=2 / keyint=240 / keyint_min=24 / scenecut=40 / intra_refresh=0 / rc_lookahead=40 / rc=2pass / mbtree=1 / bitrate=3334 / ratetol=1.0 / qcomp=0.60 / qpmin=0 / qpmax=69 / qpstep=4 / cplxblur=20.0 / qblur=0.5 / ip_ratio=1.40 / aq=1:1.00
Language : Japanese
Default : Yes
Forced : No
Color range : Limited
Color primaries : BT.709
Transfer characteristics : BT.709
Matrix coefficients : BT.709

Audio #1
ID : 2
Format : AC-3
Format/Info : Audio Coding 3
Commercial name : Dolby Digital
Codec ID : A_AC3
Duration : 2 h 0 min
Bit rate mode : Constant
Bit rate : 448 kb/s
Channel(s) : 6 channels
Channel layout : L R C LFE Ls Rs
Sampling rate : 48.0 kHz
Frame rate : 31.250 FPS (1536 SPF)
Bit depth : 16 bits
Compression mode : Lossy
Stream size : 387 MiB (10%)
Title : Thai DVD Master
Language : Thai
Service kind : Complete Main
Default : Yes
Forced : Yes

Audio #2
ID : 3
Format : E-AC-3
Format/Info : Enhanced AC-3
Commercial name : Dolby Digital Plus
Codec ID : A_EAC3
Duration : 2 h 0 min
Bit rate mode : Constant
Bit rate : 640 kb/s
Channel(s) : 6 channels
Channel layout : L R C LFE Ls Rs
Sampling rate : 48.0 kHz
Frame rate : 31.250 FPS (1536 SPF)
Compression mode : Lossy
Stream size : 553 MiB (14%)
Title : Japanese AC3 5.1
Language : Japanese
Service kind : Complete Main
Default : No
Forced : No

Text #1
ID : 4
Format : VobSub
Codec ID : S_VOBSUB
Codec ID/Info : Picture based subtitle format used on DVDs
Title : Thai 480p From DVD Master
Language : Thai
Default : No
Forced : No

Text #2
ID : 5
Format : VobSub
Codec ID : S_VOBSUB
Codec ID/Info : Picture based subtitle format used on DVDs
Title : Thai 720p
Language : Thai
Default : No
Forced : No

Text #3
ID : 6
Format : VobSub
Codec ID : S_VOBSUB
Codec ID/Info : Picture based subtitle format used on DVDs
Title : Thai 1080p
Language : Thai
Default : Yes
Forced : No

Text #4
ID : 7
Format : VobSub
Codec ID : S_VOBSUB
Codec ID/Info : Picture based subtitle format used on DVDs
Title : Thai 1080p Yellow
Language : Thai
Default : No
Forced : No

Text #5
ID : 8
Format : PGS
Codec ID : S_HDMV/PGS
Codec ID/Info : Picture based subtitle format used on BDs/HD-DVDs
Title : Thai PGS
Language : Thai
Default : No
Forced : No

Text #6
ID : 9
Format : PGS
Codec ID : S_HDMV/PGS
Codec ID/Info : Picture based subtitle format used on BDs/HD-DVDs
Title : Thai PGS Yellow
Language : Thai
Default : No
Forced : No

DOWNLOAD


PART01 |||| PART02 |||| PART03 |||| PART04

PART01 |||| PART02 |||| PART03 |||| PART04

PART01 |||| PART02 |||| PART03 |||| PART04

PART01 |||| PART02 |||| PART03 |||| PART04


Leave A Reply

Your email address will not be published.

%d bloggers like this: