[MINI Super-HQ] Seoul Station (2016) ก่อนนรกซอมบี้คลั่ง [1080p] [พากย์ไทย DTS + เสียงเกาหลี DTS] [บรรยายไทย] [เสียงไทย + ซับไทย] [PANDAFILE]

0

โหลดหนัง  Seoul Station (2016) ก่อนนรกซอมบี้คลั่ง

เรื่องย่อ Seoul Station (2016) ก่อนนรกซอมบี้คลั่ง

Hye-sun เพิ่งหนีจากชีวิตในซ่อง ตอนนี้เธออยู่กับแฟนที่ดีไม่มีอะไรเลย Ki-woong ที่ตั้งใจจะทำให้ Hye-sun ออกไปอีกครั้งเนื่องจากปัญหาเรื่องเงิน หลังจากการต่อสู้เรื่องนี้ทั้งสองแยกจากกันและติดอยู่ในความโกลาหลที่ระเบิดออกมาจากสถานีโซล Hye-sun หนีไปกับผู้รอดชีวิตเพียงไม่กี่คนที่เข้าไปในสถานีตำรวจและถูกกลุ่มซอมบี้ติดอยู่ในห้องขังเท่านั้นที่จะรับรู้ได้ว่าตำรวจถูกขังอยู่ในห้องขังพร้อมกับพวกเขาถูกกัด ในขณะเดียวกัน Suk-gyu ได้โพสต์ในฐานะพ่อของ Hye-sun ต่อ Ki-woong ก่อนที่จะซักถามเขาถึงสถานที่ของ Hye-sun ทั้งสองไปที่บ้านของ Hye-sun เพียงเพื่อจะพบว่าเจ้าของที่ดินกลายเป็นซอมบี้

Complete name : [MINI Super-HQ]_Seoul.Station.2016.1080p.BrRip.DTS.x264.One2loadup.com.mkv
Format : Matroska
Format version : Version 4
File size : 4.41 GiB
Duration : 1 h 28 min
Overall bit rate : 7 118 kb/s
Movie name : [MINI Super-HQ]_Seoul.Station.2016.1080p.BrRip.DTS.x264.One2loadup.com
Encoded date : UTC 2017-01-01 16:55:47
Writing application : mkvmerge v8.3.0 (‘Over the Horizon’) 32bit
Writing library : libebml v1.3.1 + libmatroska v1.4.2

Video
ID : 1
Format : AVC
Format/Info : Advanced Video Codec
Format profile : [email protected]
Format settings : CABAC / 4 Ref Frames
Format settings, CABAC : Yes
Format settings, ReFrames : 4 frames
Codec ID : V_MPEG4/ISO/AVC
Duration : 1 h 28 min
Bit rate : 5 600 kb/s
Width : 1 920 pixels
Height : 1 080 pixels
Display aspect ratio : 16:9
Frame rate mode : Constant
Frame rate : 25.000 FPS
Color space : YUV
Chroma subsampling : 4:2:0
Bit depth : 8 bits
Scan type : Progressive
Bits/(Pixel*Frame) : 0.108
Stream size : 3.38 GiB (77%)
Title : [MINI Super-HQ]_Seoul.Station.2016.1080p.BrRip.DTS.x264.One2loadup.com
Writing library : x264 core 142 r2431+42 c69a006 tMod [[email protected] X86_64]
Encoding settings : cabac=1 / ref=4 / deblock=1:-3:-3 / analyse=0x3:0x133 / me=umh / subme=11 / psy=1 / fade_compensate=0.00 / psy_rd=1.00:0.15 / mixed_ref=1 / me_range=64 / chroma_me=1 / trellis=2 / 8x8dct=1 / cqm=0 / deadzone=21,11 / fast_pskip=0 / chroma_qp_offset=-3 / threads=12 / lookahead_threads=1 / sliced_threads=0 / nr=0 / decimate=1 / interlaced=0 / bluray_compat=0 / constrained_intra=0 / fgo=0 / bframes=4 / b_pyramid=2 / b_adapt=2 / b_bias=0 / direct=3 / weightb=1 / open_gop=0 / weightp=2 / keyint=240 / keyint_min=23 / scenecut=40 / intra_refresh=0 / rc_lookahead=120 / rc=2pass / mbtree=1 / bitrate=5600 / ratetol=1.0 / qcomp=0.60 / qpmin=0:0:0 / qpmax=37:37:37 / qpstep=4 / cplxblur=20.0 / qblur=0.5 / vbv_maxrate=30000 / vbv_bufsize=38000 / nal_hrd=none / filler=0 / ip_ratio=1.10 / aq=3:0.90 / aq-sensitivity=10.00 / aq-factor=1.00:1.00:1.00 / aq2=0 / aq3=0
Language : Korean
Default : Yes
Forced : No

Audio #1
ID : 2
Format : DTS
Format/Info : Digital Theater Systems
Codec ID : A_DTS
Duration : 1 h 28 min
Bit rate mode : Constant
Bit rate : 755 kb/s
Channel(s) : 6 channels
Channel layout : C L R Ls Rs LFE
Sampling rate : 48.0 kHz
Frame rate : 93.750 FPS (512 SPF)
Bit depth : 24 bits
Compression mode : Lossy
Stream size : 478 MiB (11%)
Title : DTS @ 755 Kbps
Language : Thai
Default : Yes
Forced : No

Audio #2
ID : 3
Format : DTS
Format/Info : Digital Theater Systems
Codec ID : A_DTS
Duration : 1 h 28 min
Bit rate mode : Constant
Bit rate : 755 kb/s
Channel(s) : 6 channels
Channel layout : C L R Ls Rs LFE
Sampling rate : 48.0 kHz
Frame rate : 93.750 FPS (512 SPF)
Bit depth : 24 bits
Compression mode : Lossy
Stream size : 478 MiB (11%)
Title : DTS @ 755 Kbps
Language : Korean
Default : No
Forced : No

Text
ID : 4
Format : PGS
Muxing mode : zlib
Codec ID : S_HDMV/PGS
Codec ID/Info : Picture based subtitle format used on BDs/HD-DVDs
Title : PGS
Language : Thai
Default : No
Forced : No

Menu
00:00:00.000 : en:00:00:00.000
00:11:23.800 : en:00:11:23.800
00:19:15.480 : en:00:19:15.480
00:30:25.800 : en:00:30:25.800
00:38:01.840 : en:00:38:01.840
00:44:03.200 : en:00:44:03.200
00:47:13.240 : en:00:47:13.240
00:53:54.880 : en:00:53:54.880
00:59:00.160 : en:00:59:00.160
01:08:53.800 : en:01:08:53.800
01:12:32.360 : en:01:12:32.360
01:20:25.560 : en:01:20:25.560

DOWNLOAD


PART01 |||| PART02 |||| PART03 |||| PART04 |||| PART05

PART01 |||| PART02 |||| PART03 |||| PART04 |||| PART05

PART01 |||| PART02 |||| PART03 |||| PART04 |||| PART05

PART01 |||| PART02 |||| PART03 |||| PART04 |||| PART05

PART01 |||| PART02 |||| PART03 |||| PART04 |||| PART05


Leave A Reply

อีเมล์ของคุณจะไม่แสดงให้เห็น Your email address will not be published.

%d bloggers like this: