[MINI Super-HQ] Secretariat (2010) เกียรติยศแห่งอาชา [1080p] [พากย์ไทย 5.1 + เสียงอังกฤษ 5.1] [บรรยายไทย + อังกฤษ] [เสียงไทย + ซับไทย] [DOSYAUPLOAD]

0

โหลดหนัง Secretariat (2010) เกียรติยศแห่งอาชา

Secretariat (2010) 123min | Biography, Drama, Family | 8 October 2010 (USA) Summary: Penny Chenery Tweedy and colleagues guide her long-shot but precocious stallion to set, in 1973, the unbeaten record for winning the Triple Crown.
Countries: USALanguages: English

เรื่องย่อ Secretariat (2010) เกียรติยศแห่งอาชา

เรื่องราวการฝ่าฟันอุปสรรคจนได้แชมป์การแข่งขันขี่ม้าเมื่อ เพนนี เชอร์เนอร์รี่ (ไดแอน เลน) ตัดสินใจเข้าร่วมการแข่งขันขี่ม้าในรายการ Triple Crown แม้ว่าเธอจะไม่มีความรู้ด้านการแข่งขันขี่ม้าอยู่เลยก็ตามแต่ด้วยความช่วยเหลือของ ลูเซียน (จอห์น มัคโควิช) ทำให้ในที่สุด เซเคร็ตทาเรียต ม้าแข่งของเพนนี เชอร์เนอร์รี่ ชนะการแข่งขัน Triple Crown ในรอบ 25 ปี และถูกบันทึกว่าเป็นม้าแข่งที่ดีที่สุดจนกลายเป็นตำนานเล่าขานถึงความแกร่งและทรนงของเซเคร็ตทาเรียต!

Complete name : [MINI Super-HQ]_Secretariat.2010.1080p.BrRip.EAC3.x264.One2loadup.com.mkv
Format : Matroska
Format version : Version 4
File size : 4.94 GiB
Duration : 2 h 2 min
Overall bit rate mode : Variable
Overall bit rate : 5 746 kb/s
Movie name : [MINI Super-HQ]_Secretariat.2010.1080p.BrRip.EAC3.x264.One2loadup.com
Encoded date : UTC 2021-04-10 23:37:16
Writing application : mkvmerge v56.0.0 (‘Strasbourg / St. Denis’) 64-bit
Writing library : libebml v1.4.2 + libmatroska v1.6.4
Cover : Yes
Attachments : Cover.jpg

Video
ID : 1
Format : AVC
Format/Info : Advanced Video Codec
Format profile : [email protected]
Format settings : CABAC / 1 Ref Frames
Format settings, CABAC : Yes
Format settings, Reference : 1 frame
Codec ID : V_MPEG4/ISO/AVC
Duration : 2 h 2 min
Bit rate mode : Variable
Bit rate : 4 470 kb/s
Maximum bit rate : 13.5 Mb/s
Width : 1 920 pixels
Height : 816 pixels
Display aspect ratio : 2.35:1
Frame rate mode : Constant
Frame rate : 23.976 (24000/1001) FPS
Color space : YUV
Chroma subsampling : 4:2:0
Bit depth : 8 bits
Scan type : Progressive
Bits/(Pixel*Frame) : 0.119
Stream size : 3.84 GiB (78%)
Title : [MINI Super-HQ]_Secretariat.2010.1080p.BrRip.EAC3.x264.One2loadup.com
Language : English
Default : Yes
Forced : No

Audio #1
ID : 2
Format : E-AC-3
Format/Info : Enhanced AC-3
Commercial name : Dolby Digital Plus
Codec ID : A_EAC3
Duration : 2 h 2 min
Bit rate mode : Constant
Bit rate : 768 kb/s
Channel(s) : 6 channels
Channel layout : L R C LFE Ls Rs
Sampling rate : 48.0 kHz
Frame rate : 31.250 FPS (1536 SPF)
Compression mode : Lossy
Stream size : 676 MiB (13%)
Language : English
Service kind : Complete Main
Default : No
Forced : Yes

Audio #2
ID : 3
Format : AC-3
Format/Info : Audio Coding 3
Commercial name : Dolby Digital
Codec ID : A_AC3
Duration : 2 h 2 min
Bit rate mode : Constant
Bit rate : 448 kb/s
Channel(s) : 6 channels
Channel layout : L R C LFE Ls Rs
Sampling rate : 48.0 kHz
Frame rate : 31.250 FPS (1536 SPF)
Compression mode : Lossy
Stream size : 394 MiB (8%)
Title : AC-3 Thai
Language : Thai
Service kind : Complete Main
Default : Yes
Forced : Yes

Text #1
ID : 4
Format : VobSub
Muxing mode : zlib
Codec ID : S_VOBSUB
Codec ID/Info : Picture based subtitle format used on DVDs
Duration : 1 h 56 min
Bit rate : 13.9 kb/s
Count of elements : 1478
Stream size : 11.6 MiB (0%)
Title : Sub Thai 1080p
Language : Thai
Default : No
Forced : No

Text #2
ID : 5
Format : UTF-8
Codec ID : S_TEXT/UTF8
Codec ID/Info : UTF-8 Plain Text
Duration : 1 h 56 min
Bit rate : 157 b/s
Count of elements : 1478
Stream size : 134 KiB (0%)
Title : Sub Thai SRT
Language : Thai
Default : No
Forced : No

Text #3
ID : 6
Format : PGS
Muxing mode : zlib
Codec ID : S_HDMV/PGS
Codec ID/Info : Picture based subtitle format used on BDs/HD-DVDs
Duration : 1 h 56 min
Bit rate : 44.5 kb/s
Count of elements : 2956
Stream size : 37.0 MiB (1%)
Title : Sub Thai PGS
Language : Thai
Default : Yes
Forced : No

Text #4
ID : 7
Format : VobSub
Muxing mode : zlib
Codec ID : S_VOBSUB
Codec ID/Info : Picture based subtitle format used on DVDs
Duration : 1 h 55 min
Bit rate : 14.4 kb/s
Count of elements : 1528
Stream size : 11.8 MiB (0%)
Title : Sub English 1080p
Language : English
Default : No
Forced : No

Text #5
ID : 8
Format : UTF-8
Codec ID : S_TEXT/UTF8
Codec ID/Info : UTF-8 Plain Text
Duration : 1 h 55 min
Bit rate : 75 b/s
Count of elements : 1528
Stream size : 63.7 KiB (0%)
Title : Sub English SRT
Language : English
Default : No
Forced : No

Text #6
ID : 9
Format : PGS
Muxing mode : zlib
Codec ID : S_HDMV/PGS
Codec ID/Info : Picture based subtitle format used on BDs/HD-DVDs
Duration : 1 h 55 min
Bit rate : 47.0 kb/s
Count of elements : 3056
Stream size : 38.7 MiB (1%)
Title : Sub English PGS
Language : English
Default : No
Forced : No

DOWNLOAD


PART01 |||| PART02 |||| PART03 |||| PART04 |||| PART05

PART01 |||| PART02 |||| PART03 |||| PART04 |||| PART05

PART01 |||| PART02 |||| PART03 |||| PART04 |||| PART05

PART01 |||| PART02 |||| PART03 |||| PART04 |||| PART05

PART01 |||| PART02 |||| PART03 |||| PART04 |||| PART05


Leave A Reply

Your email address will not be published.

%d bloggers like this: