[MINI Super-HQ] Secret Life of Pets 2 (2019) เรื่องลับแก๊งขนฟู ภาค 2 [1080p] [พากย์ไทย 5.1 + เสียงอังกฤษ DTS] [บรรยายไทย + อังกฤษ] [เสียงไทย + ซับไทย] [OPENLOAD]

0

Secret Life of Pets 2 (2019)

โหลดหนัง Secret Life of Pets 2 (2019) เรื่องลับแก๊งขนฟู ภาค 2

The Secret Life of Pets 2 (2019) 1h 26min | Animation, Adventure, Comedy | 7 June 2019 (Canada) Summary: Continuing the story of Max and his pet friends, following their secret lives after their owners leave them for work or school each day.
Countries: USA, France, JapanLanguages: English

เรื่องย่อ Secret Life of Pets 2 (2019) เรื่องลับแก๊งขนฟู ภาค 2

the Secret Life Of Pets เรื่องลับแก๊งขนฟู คือผลงานลำดับที่ 5 ซึ่งเป็นการจับมือกันระหว่างอิลลูมิเนชั่น เอนเตอร์เทนเมนต์ และยูนิเวอร์แซล พิคเจอร์ส ซึ่งจะมาเผยความลับว่าเหล่าสัตว์เลี้ยงทำอะไรระหว่างที่เจ้าของไม่อยู่บ้าน ภาพยนตร์เรื่องนี้ ได้นักแสดงตลกชื่อดังอย่าง หลุยส์ ซี.เค., อีริค สโตนสตรีท และเควิน ฮาร์ท มาให้เสียงพากย์โดยได้ คริส เรโนด์ จาก Despicable Me, Despicable Me 2 มารับหน้าที่ผู้กำกับเตรียมพบกับความน่ารักของเหล่าส ัตว์เลี้ยงแสนซน (สุดแสบ)ใน The Secret Life Of Pets เรื่องลับแก๊งขนฟู!!!

Complete name : [MINI Super-HQ]_The.Secret.Life.of.Pets.2.2019.1080p.BrRip.DTS.x264.One2loadup.com.mkv
Format : Matroska
Format version : Version 4
File size : 3.83 GiB
Duration : 1 h 26 min
Overall bit rate : 6 363 kb/s
Movie name : [MINI Super-HQ]_The.Secret.Life.of.Pets.2.2019.1080p.BrRip.DTS.x264.One2loadup.com
Encoded date : UTC 2010-02-22 21:41:31
Writing application : mkvmerge v5.9.0 (‘On The Loose’) built on Dec 9 2012 15:37:01
Writing library : libebml v1.3.0 + libmatroska v1.4.0

Video
ID : 1
Format : AVC
Format/Info : Advanced Video Codec
Format profile : [email protected]
Format settings : CABAC / 4 Ref Frames
Format settings, CABAC : Yes
Format settings, ReFrames : 4 frames
Codec ID : V_MPEG4/ISO/AVC
Duration : 1 h 26 min
Bit rate : 4 850 kb/s
Width : 1 920 pixels
Height : 1 036 pixels
Display aspect ratio : 1.85:1
Frame rate mode : Constant
Frame rate : 23.976 (24000/1001) FPS
Color space : YUV
Chroma subsampling : 4:2:0
Bit depth : 8 bits
Scan type : Progressive
Bits/(Pixel*Frame) : 0.102
Stream size : 2.91 GiB (76%)
Title : [MINI Super-HQ]_The.Secret.Life.of.Pets.2.2019.1080p.BrRip.DTS.x264.One2loadup.com
Writing library : x264 core 146 r2538 121396c
Encoding settings : cabac=1 / ref=5 / deblock=1:-3:-3 / analyse=0x3:0x133 / me=tesa / subme=11 / psy=1 / psy_rd=1.00:0.15 / mixed_ref=1 / me_range=48 / chroma_me=1 / trellis=2 / 8x8dct=1 / cqm=0 / deadzone=21,11 / fast_pskip=1 / chroma_qp_offset=-3 / threads=54 / lookahead_threads=4 / sliced_threads=0 / nr=0 / decimate=1 / interlaced=0 / bluray_compat=1 / constrained_intra=0 / bframes=3 / b_pyramid=1 / b_adapt=2 / b_bias=0 / direct=3 / weightb=1 / open_gop=0 / weightp=1 / keyint=250 / keyint_min=1 / scenecut=40 / intra_refresh=0 / rc_lookahead=60 / rc=2pass / mbtree=1 / bitrate=4850 / ratetol=1.0 / qcomp=0.60 / qpmin=0 / qpmax=69 / qpstep=4 / cplxblur=20.0 / qblur=0.5 / ip_ratio=1.40 / aq=1:1.30
Language : English
Default : Yes
Forced : No

Audio #1
ID : 2
Format : AC-3
Format/Info : Audio Coding 3
Commercial name : Dolby Digital
Codec ID : A_AC3
Duration : 1 h 26 min
Bit rate mode : Constant
Bit rate : 640 kb/s
Channel(s) : 6 channels
Channel layout : L R C LFE Ls Rs
Sampling rate : 48.0 kHz
Frame rate : 31.250 FPS (1536 SPF)
Bit depth : 16 bits
Compression mode : Lossy
Stream size : 394 MiB (10%)
Title : Thai BluRay Master
Language : Thai
Service kind : Complete Main
Default : Yes
Forced : Yes

Audio #2
ID : 3
Format : DTS
Format/Info : Digital Theater Systems
Codec ID : A_DTS
Duration : 1 h 26 min
Bit rate mode : Constant
Bit rate : 755 kb/s
Channel(s) : 6 channels
Channel layout : C L R Ls Rs LFE
Sampling rate : 48.0 kHz
Frame rate : 93.750 FPS (512 SPF)
Bit depth : 24 bits
Compression mode : Lossy
Stream size : 464 MiB (12%)
Title : English DTS
Language : English
Default : No
Forced : No

Text #1
ID : 4
Format : VobSub
Codec ID : S_VOBSUB
Codec ID/Info : Picture based subtitle format used on DVDs
Title : Thai 480p
Language : Thai
Default : No
Forced : No

Text #2
ID : 5
Format : VobSub
Codec ID : S_VOBSUB
Codec ID/Info : Picture based subtitle format used on DVDs
Title : Thai 720p
Language : Thai
Default : No
Forced : No

Text #3
ID : 6
Format : VobSub
Codec ID : S_VOBSUB
Codec ID/Info : Picture based subtitle format used on DVDs
Title : Thai 1080p
Language : Thai
Default : Yes
Forced : Yes

Text #4
ID : 7
Format : VobSub
Codec ID : S_VOBSUB
Codec ID/Info : Picture based subtitle format used on DVDs
Title : Thai 1080p Yellow
Language : Thai
Default : No
Forced : No

Text #5
ID : 8
Format : VobSub
Codec ID : S_VOBSUB
Codec ID/Info : Picture based subtitle format used on DVDs
Title : Thai 1080p BIG
Language : Thai
Default : No
Forced : No

Text #6
ID : 9
Format : PGS
Codec ID : S_HDMV/PGS
Codec ID/Info : Picture based subtitle format used on BDs/HD-DVDs
Title : Thai PGS BluRay Master
Language : Thai
Default : No
Forced : No

Text #7
ID : 10
Format : PGS
Codec ID : S_HDMV/PGS
Codec ID/Info : Picture based subtitle format used on BDs/HD-DVDs
Title : Thai PGS Yellow
Language : Thai
Default : No
Forced : No

Text #8
ID : 11
Format : PGS
Codec ID : S_HDMV/PGS
Codec ID/Info : Picture based subtitle format used on BDs/HD-DVDs
Title : English
Language : English
Default : No
Forced : No

Menu
00:00:00.000 : en:Chapter 1
00:05:35.544 : en:Chapter 2
00:10:08.817 : en:Chapter 3
00:13:27.307 : en:Chapter 4
00:16:40.792 : en:Chapter 5
00:19:57.948 : en:Chapter 6
00:24:11.076 : en:Chapter 7
00:28:16.738 : en:Chapter 8
00:30:55.272 : en:Chapter 9
00:35:16.116 : en:Chapter 10
00:39:56.980 : en:Chapter 11
00:45:48.332 : en:Chapter 12
00:49:52.826 : en:Chapter 13
00:56:55.999 : en:Chapter 14
00:58:36.225 : en:Chapter 15
01:02:49.937 : en:Chapter 16
01:07:17.621 : en:Chapter 17
01:12:49.828 : en:Chapter 18
01:15:22.814 : en:Chapter 19
01:18:11.024 : en:Chapter 20

DOWNLOAD


PART01 |||| PART02 |||| PART03 |||| PART04

PART01 |||| PART02 |||| PART03 |||| PART04

PART01 |||| PART02 |||| PART03 |||| PART04

PART01 |||| PART02 |||| PART03 |||| PART04


Leave A Reply

Your email address will not be published.