[MINI Super-HQ] Saving Private Ryan (1998) ฝ่าสมรภูมินรก [1080p] [พากย์ไทย 5.1 + เสียงอังกฤษ DTS] [บรรยายไทย + อังกฤษ] [เสียงไทย + ซับไทย] [DOSYAUPLOAD]

0

โหลดหนัง Saving Private Ryan (1998) ฝ่าสมรภูมินรก

Saving Private Ryan (1998) 2h 49min | Drama, War | 24 July 1998 (USA) Summary: Following the Normandy Landings, a group of U.S. soldiers go behind enemy lines to retrieve a paratrooper whose brothers have been killed in action.
Countries: USALanguages: English, French, German, Czech

เรื่องย่อ Saving Private Ryan (1998) ฝ่าสมรภูมินรก

ภาพยนตร์ที่มิอาจลืมเลือน ซาบซึ้งและ.ตราตรึงในใจผู้คนทั่วโลกยิ่งนาน เรื่องราวของเหตุการณ์เปิดฉากการบุกในวันดี-เดย์ จากนั้นก็เคลื่อนขึ้นชายหาดตามหลังกองทหารอเมริกันที่ยกพลขึ้นบกในปฏิบัติการพิเศษสุดนรก ร้อยเอกจอห์น มิลเลอร์ (ทอม แฮ็งค์) รับภาระกิจนำเหล่าทหารเจาะหลังแนวข้าศึกเพื่อไปตามหา พลทหาร เจมส์ ไรอัน (แม็ท เดม่อน)!!!

พิเศษสุดหรับหนังเรื่องนี้ได้รับรางวัล : รางวัลออสการ์แห่งปี 1998 จากสาขาภาพยนตร์ยอดเยี่ยม,ผู้กำกับยอดเยี่ยม, เสียงประกอบยอดเยี่ยม, ตัดต่อยอดเยี่ยม และ บันทึกเสียงยอดเยี่ยม

Complete name : [MINI Super-HQ]_Saving.Private.Ryan.1998.1080p.BDRip.DTS.x264.One2loadup.com.mkv
Format : Matroska
Format version : Version 4
File size : 5.07 GiB
Duration : 2 h 49 min
Overall bit rate : 4 282 kb/s
Movie name : [MINI Super-HQ]_Saving.Private.Ryan.1998.1080p.BDRip.DTS.x264.One2loadup.com
Encoded date : UTC 2010-02-22 21:41:31
Writing application : mkvmerge v5.9.0 (‘On The Loose’) built on Dec 9 2012 15:37:01
Writing library : libebml v1.3.0 + libmatroska v1.4.0

Video
ID : 1
Format : AVC
Format/Info : Advanced Video Codec
Format profile : [email protected]
Format settings : CABAC / 8 Ref Frames
Format settings, CABAC : Yes
Format settings, ReFrames : 8 frames
Codec ID : V_MPEG4/ISO/AVC
Duration : 2 h 49 min
Bit rate : 2 800 kb/s
Width : 1 920 pixels
Height : 1 036 pixels
Display aspect ratio : 1.85:1
Frame rate mode : Constant
Frame rate : 23.976 (24000/1001) FPS
Color space : YUV
Chroma subsampling : 4:2:0
Bit depth : 8 bits
Scan type : Progressive
Bits/(Pixel*Frame) : 0.059
Stream size : 3.32 GiB (65%)
Title : [MINI Super-HQ]_Saving.Private.Ryan.1998.1080p.BDRip.DTS.x264.One2loadup.com
Writing library : x264 core 146 r2538 121396c
Encoding settings : cabac=1 / ref=8 / deblock=1:-3:-3 / analyse=0x3:0x133 / me=tesa / subme=11 / psy=1 / psy_rd=1.00:0.15 / mixed_ref=1 / me_range=24 / chroma_me=1 / trellis=2 / 8x8dct=1 / cqm=0 / deadzone=21,11 / fast_pskip=1 / chroma_qp_offset=-3 / threads=9 / lookahead_threads=1 / sliced_threads=0 / nr=0 / decimate=1 / interlaced=0 / bluray_compat=0 / constrained_intra=0 / bframes=5 / b_pyramid=2 / b_adapt=2 / b_bias=0 / direct=3 / weightb=1 / open_gop=0 / weightp=2 / keyint=250 / keyint_min=23 / scenecut=40 / intra_refresh=0 / rc_lookahead=60 / rc=2pass / mbtree=1 / bitrate=2800 / ratetol=1.0 / qcomp=0.60 / qpmin=0 / qpmax=69 / qpstep=4 / cplxblur=20.0 / qblur=0.5 / ip_ratio=1.40 / aq=1:1.30
Language : English
Default : Yes
Forced : No

Audio #1
ID : 2
Format : DTS
Format/Info : Digital Theater Systems
Codec ID : A_DTS
Duration : 2 h 49 min
Bit rate mode : Constant
Bit rate : 755 kb/s
Channel(s) : 6 channels
Channel layout : C L R Ls Rs LFE
Sampling rate : 48.0 kHz
Frame rate : 93.750 FPS (512 SPF)
Bit depth : 24 bits
Compression mode : Lossy
Stream size : 915 MiB (18%)
Title : Eng DTS
Language : English
Default : Yes
Forced : Yes

Audio #2
ID : 3
Format : AC-3
Format/Info : Audio Coding 3
Commercial name : Dolby Digital
Codec ID : A_AC3
Duration : 2 h 49 min
Bit rate mode : Constant
Bit rate : 640 kb/s
Channel(s) : 6 channels
Channel layout : L R C LFE Ls Rs
Sampling rate : 48.0 kHz
Frame rate : 31.250 FPS (1536 SPF)
Bit depth : 16 bits
Compression mode : Lossy
Stream size : 776 MiB (15%)
Title : Thai Dolby 5.1 ch
Language : Thai
Service kind : Complete Main
Default : No
Forced : No

Text #1
ID : 4
Format : VobSub
Codec ID : S_VOBSUB
Codec ID/Info : Picture based subtitle format used on DVDs
Title : Thai Vob 480p
Language : Thai
Default : Yes
Forced : Yes

Text #2
ID : 5
Format : VobSub
Codec ID : S_VOBSUB
Codec ID/Info : Picture based subtitle format used on DVDs
Title : Thai Vob 720p
Language : Thai
Default : No
Forced : No

Text #3
ID : 6
Format : VobSub
Codec ID : S_VOBSUB
Codec ID/Info : Picture based subtitle format used on DVDs
Title : Thai Vob 1080p
Language : Thai
Default : No
Forced : No

Text #4
ID : 7
Format : PGS
Codec ID : S_HDMV/PGS
Codec ID/Info : Picture based subtitle format used on BDs/HD-DVDs
Title : Thai PGS
Language : Thai
Default : No
Forced : No

Text #5
ID : 8
Format : PGS
Codec ID : S_HDMV/PGS
Codec ID/Info : Picture based subtitle format used on BDs/HD-DVDs
Title : Thai PGS
Language : Thai
Default : No
Forced : No

Text #6
ID : 9
Format : PGS
Codec ID : S_HDMV/PGS
Codec ID/Info : Picture based subtitle format used on BDs/HD-DVDs
Title : Eng PGS
Language : English
Default : No
Forced : No

Menu
00:00:00.000 : en:Memorial
00:04:31.438 : en:Omaha Beach
00:13:48.077 : en:Rallying
00:18:57.887 : en:Breakthrough
00:26:54.488 : en:Letters
00:36:12.796 : en:A Public Relations Mission
00:45:48.537 : en:Pool
00:57:40.457 : en:Private James Ryan
01:05:27.340 : en:Choices
01:13:46.839 : en:FUBAR
01:17:43.075 : en:Dog-Tags
01:24:06.083 : en:Radar Station
01:35:30.725 : en:Big Mystery
01:46:44.189 : en:One Decent Thing
01:59:36.544 : en:Paif
02:07:26.597 : en:Born Lucky
02:17:12.599 : en:Ammo
02:26:55.390 : en:The Alamo
02:32:43.738 : en:The Bridge
02:42:39.917 : en:Duty Roster

DOWNLOAD


PART01 |||| PART02 |||| PART03 |||| PART04 |||| PART05 |||| PART06

PART01 |||| PART02 |||| PART03 |||| PART04 |||| PART05 |||| PART06

PART01 |||| PART02 |||| PART03 |||| PART04 |||| PART05 |||| PART06

PART01 |||| PART02 |||| PART03 |||| PART04 |||| PART05 |||| PART06

PART01 |||| PART02 |||| PART03 |||| PART04 |||| PART05 |||| PART06



แจ้งหนังเสีย หรือโหลดไม่ได้ ทั้งลิ้งฟรีและ vip สามารถกดที่รูปด้านบนนี้ได้เลย

: Disable Comments
%d bloggers like this: