[MINI Super-HQ] Roman J. Israel, Esq. (2017) [พากย์อังกฤษ DTS] [Soundtrack บรรยายไทย + อังกฤษ] [เสียงอังกฤษ + ซับไทย] [PANDAFILE]

5

Roman J. Israel, Esq. (2017)

โหลดหนัง Roman J. Israel, Esq. (2017)

Roman J. Israel, Esq. | November 22, 2017 (United States) Summary: Roman J. Israel, Esq., a driven, idealistic defense attorney, finds himself in a tumultuous series of events that lead to a crisis and the necessity for extreme action.
Countries: Canada, United Arab Emirates, United StatesLanguages: English, Spanish, Armenian

เรื่องย่อ Roman J. Israel, Esq. (2017)

“Roman J. Israel, Esq.” คือ ภาพยนตร์ดราม่าทริลเลอร์ที่บอกเล่าเรื่องราวอาชญากรร มในระบบงานยุติธรรมของเมืองลอส แองเจลิส – เดนเซล วอร์ชิงตันรับบทเป็นทนายความจอมพูดขวานผ่าซาก ผู้ยึดติดอยู่กับอุดมคติที่แสนจะเลื่อนลอย เมื่อวันหนึ่งเข้าต้องเข้าไปพัวพันกับความวุ่นวายที่ สั่นคลอนชีวิตและอาชีพของเขา เขาต้องแก้ไขปัญหานี้ พร้อมได้รับความช่วยเหลือจาก เพื่อนที่มุ่งหวังจะตั้งสำนักงานทนายด้วยกัน รับบทโดย โคลิน ฟาร์เรล!!!

Complete name : [MINI Super-HQ]_Roman.J.Israel,.Esq.2017.1080p.BrRip.DTS.x264.Soundtrack.One2loadup.com.mkv
Format : Matroska
Format version : Version 4 / Version 2
File size : 3.83 GiB
Duration : 2 h 2 min
Overall bit rate : 4 477 kb/s
Movie name : [MINI Super-HQ]_Roman.J.Israel,.Esq.2017.1080p.BrRip.DTS.x264.Soundtrack.One2loadup.com
Encoded date : UTC 2010-02-22 21:41:31
Writing application : mkvmerge v5.9.0 (‘On The Loose’) built on Dec 9 2012 15:37:01
Writing library : libebml v1.3.0 + libmatroska v1.4.0

Video
ID : 1
Format : AVC
Format/Info : Advanced Video Codec
Format profile : [email protected]
Format settings, CABAC : Yes
Format settings, RefFrames : 4 frames
Codec ID : V_MPEG4/ISO/AVC
Duration : 2 h 2 min
Bit rate : 3 634 kb/s
Width : 1 920 pixels
Height : 1 038 pixels
Display aspect ratio : 1.85:1
Frame rate mode : Constant
Frame rate : 23.976 (24000/1001) FPS
Color space : YUV
Chroma subsampling : 4:2:0
Bit depth : 8 bits
Scan type : Progressive
Bits/(Pixel*Frame) : 0.076
Stream size : 3.11 GiB (81%)
Title : [MINI Super-HQ]_Roman.J.Israel,.Esq.2017.1080p.BrRip.DTS.x264.Soundtrack.One2loadup.com
Language : English
Default : Yes
Forced : No

Audio
ID : 2
Format : DTS
Format/Info : Digital Theater Systems
Mode : 16
Format settings, Endianness : Big
Codec ID : A_DTS
Duration : 2 h 2 min
Bit rate mode : Constant
Bit rate : 755 kb/s
Channel(s) : 6 channels
Channel positions : Front: L C R, Side: L R, LFE
Sampling rate : 48.0 kHz
Frame rate : 93.750 FPS (512 SPF)
Bit depth : 24 bits
Compression mode : Lossy
Stream size : 660 MiB (17%)
Title : English DTS
Language : English
Default : Yes
Forced : No

Text #1
ID : 3
Format : VobSub
Codec ID : S_VOBSUB
Codec ID/Info : Picture based subtitle format used on DVDs
Language : Thai
Default : Yes
Forced : Yes

Text #2
ID : 4
Format : VobSub
Codec ID : S_VOBSUB
Codec ID/Info : Picture based subtitle format used on DVDs
Title : Thai 480p
Language : Thai
Default : No
Forced : No

Text #3
ID : 5
Format : VobSub
Codec ID : S_VOBSUB
Codec ID/Info : Picture based subtitle format used on DVDs
Title : Thai 720p
Language : Thai
Default : No
Forced : No

Text #4
ID : 6
Format : VobSub
Codec ID : S_VOBSUB
Codec ID/Info : Picture based subtitle format used on DVDs
Title : Thai 1080p
Language : Thai
Default : No
Forced : No

Text #5
ID : 7
Format : VobSub
Codec ID : S_VOBSUB
Codec ID/Info : Picture based subtitle format used on DVDs
Title : Thai 1080p Yellow
Language : Thai
Default : No
Forced : No

Text #6
ID : 8
Format : VobSub
Codec ID : S_VOBSUB
Codec ID/Info : Picture based subtitle format used on DVDs
Title : Thai 1080p BIG
Language : Thai
Default : No
Forced : No

Text #7
ID : 9
Format : PGS
Codec ID : S_HDMV/PGS
Codec ID/Info : Picture based subtitle format used on BDs/HD-DVDs
Title : Thai PGS BluRay Master
Language : English
Default : No
Forced : No

Text #8
ID : 10
Format : PGS
Codec ID : S_HDMV/PGS
Codec ID/Info : Picture based subtitle format used on BDs/HD-DVDs
Title : English
Language : Thai
Default : No
Forced : No

 

DOWNLOAD


PART01 |||| PART02 |||| PART03 |||| PART04

PART01 |||| PART02 |||| PART03 |||| PART04

PART01 |||| PART02 |||| PART03 |||| PART04

PART01 |||| PART02 |||| PART03 |||| PART04

PART01 |||| PART02 |||| PART03 |||| PART04


5 Comments
  1. Max says

    Part 1 เสียครับ

    1. Admin
      Admin says

      แก้ไขเรียบร้อยฮ๊ะ

      1. Max says

        ขอบคุณครับ

  2. Ha Yu
    Ha Yu says

    ลิงค์เสียหมดแล้ว ช่วยอัพใหม่ได้มั้ยครับ ขอบคุณครับ

    1. Admin
      Admin says

      แก้ไขเรียบร้อยฮ๊ะ

Leave A Reply

อีเมล์ของคุณจะไม่แสดงให้เห็น Your email address will not be published.

%d bloggers like this: