[MINI Super-HQ] Reminiscence (2021) ล้วงอดีตรำลึกเวลา [1080p] [HBO Max] [พากย์อังกฤษ 5.1] [Soundtrack บรรยายไทย + อังกฤษ] [เสียงอังกฤษ + ซับไทย] [USERLOAD]

0

โหลดหนัง Reminiscence (2021) ล้วงอดีตรำลึกเวลา

Reminiscence 116min | Mystery, Romance, Sci-Fi, Thriller | August 20, 2021 (United States) Summary: Nick Bannister, a private investigator of the mind, navigates the alluring world of the past when his life is changed by new client Mae. A simple case becomes an obsession after she disappea... Read all
Countries: United StatesLanguages: English

เรื่องย่อ Reminiscence (2021) ล้วงอดีตรำลึกเวลา

เรื่องราวของ นิค แบนนิสเตอร์ (แจ็คแมน) นักสืบสวนแห่งจิตใจที่ต้องออกสำรวจโลกอันหมองหม่นในอดีตเพื่อช่วยเหลือ เม (เฟอร์กูสัน) คนไข้ที่สูญเสียความทรงจำทำให้ชีวิตที่จมดิ่ง ณ ชายฝั่งไมอามี่ของเขาเปลี่ยนไปตลอดกาลจากการสูญเสียและค้นพบธรรมดา ๆ กลายเป็นความหลงใหลที่อันตรายเมื่อแบนนิสเตอร์ ต้องต่อสู้เพื่อตามหาความจริงเกี่ยวกับการหายตัวไปของ เม ทั้งต้องเปิดโปงการสมรู้ร่วมคิดที่แสนโหดร้ายพร้อมตอบคำถามว่าคุณจะสามารถจับมือคนที่คุณรักเอาไว้ได้นานแค่ไหน?

Complete name : [MINI Super-HQ]_Reminiscence.2021.1080p.HBO.WEB-DL.EAC3.x264.Subthai.One2loadup.com.mkv
Format : Matroska
Format version : Version 4
File size : 4.25 GiB
Duration : 1 h 55 min
Overall bit rate : 5 251 kb/s
Movie name : [MINI Super-HQ]_Reminiscence.2021.1080p.HBO.WEB-DL.EAC3.x264.Subthai.One2loadup.com
Encoded date : UTC 2021-08-21 13:04:33
Writing application : mkvmerge v60.0.0 (‘Are We Copies?’) 64-bit
Writing library : libebml v1.4.2 + libmatroska v1.6.4

Video
ID : 1
Format : AVC
Format/Info : Advanced Video Codec
Format profile : [email protected]
Format settings : CABAC / 3 Ref Frames
Format settings, CABAC : Yes
Format settings, Reference : 3 frames
Codec ID : V_MPEG4/ISO/AVC
Duration : 1 h 55 min
Bit rate : 4 458 kb/s
Width : 1 920 pixels
Height : 800 pixels
Display aspect ratio : 2.40:1
Frame rate mode : Constant
Frame rate : 23.976 (24000/1001) FPS
Color space : YUV
Chroma subsampling : 4:2:0
Bit depth : 8 bits
Scan type : Progressive
Bits/(Pixel*Frame) : 0.121
Stream size : 3.61 GiB (85%)
Title : [MINI Super-HQ]_Reminiscence.2021.1080p.HBO.WEB-DL.EAC3.x264.Subthai.One2loadup.com
Language : English
Default : Yes
Forced : No
Color range : Limited
Color primaries : BT.709
Transfer characteristics : BT.709
Matrix coefficients : BT.709

Audio
ID : 2
Format : E-AC-3 JOC
Format/Info : Enhanced AC-3 with Joint Object Coding
Commercial name : Dolby Digital Plus with Dolby Atmos
Codec ID : A_EAC3
Duration : 1 h 55 min
Bit rate mode : Constant
Bit rate : 768 kb/s
Channel(s) : 6 channels
Channel layout : L R C LFE Ls Rs
Sampling rate : 48.0 kHz
Frame rate : 31.250 FPS (1536 SPF)
Compression mode : Lossy
Stream size : 637 MiB (15%)
Title : E-AC3 Atmos English
Language : English
Service kind : Complete Main
Default : Yes
Forced : No
Complexity index : 16
Number of dynamic objects : 15
Bed channel count : 1 channel
Bed channel configuration : LFE

Text #1
ID : 3
Format : VobSub
Muxing mode : zlib
Codec ID : S_VOBSUB
Codec ID/Info : Picture based subtitle format used on DVDs
Duration : 1 h 48 min
Bit rate : 12.4 kb/s
Count of elements : 1419
Stream size : 9.62 MiB (0%)
Title : Sub Thai 1080p
Language : Thai
Default : No
Forced : No

Text #2
ID : 4
Format : UTF-8
Codec ID : S_TEXT/UTF8
Codec ID/Info : UTF-8 Plain Text
Duration : 1 h 48 min
Bit rate : 129 b/s
Count of elements : 1419
Stream size : 103 KiB (0%)
Title : Sub Thai SRT
Language : Thai
Default : No
Forced : No

Text #3
ID : 5
Format : PGS
Muxing mode : zlib
Codec ID : S_HDMV/PGS
Codec ID/Info : Picture based subtitle format used on BDs/HD-DVDs
Duration : 1 h 48 min
Bit rate : 35.1 kb/s
Count of elements : 2838
Stream size : 27.3 MiB (1%)
Title : Sub Thai PGS
Language : Thai
Default : Yes
Forced : No

Text #4
ID : 6
Format : UTF-8
Codec ID : S_TEXT/UTF8
Codec ID/Info : UTF-8 Plain Text
Duration : 1 h 50 min
Bit rate : 56 b/s
Count of elements : 1623
Stream size : 46.0 KiB (0%)
Title : Sub English SRT
Language : English
Default : No
Forced : No

DOWNLOAD


PART01 |||| PART02 |||| PART03 |||| PART04 |||| PART05

PART01 |||| PART02 |||| PART03 |||| PART04 |||| PART05

PART01 |||| PART02 |||| PART03 |||| PART04 |||| PART05

PART01 |||| PART02 |||| PART03 |||| PART04 |||| PART05

PART01 |||| PART02 |||| PART03 |||| PART04 |||| PART05


Leave A Reply

อีเมล์ของคุณจะไม่แสดงให้เห็น Your email address will not be published.

%d bloggers like this: