[MINI Super-HQ] Remember the Titans (2000) ไททัน สู้หมดใจ เกียรติศักดิ์ก้องโลก [720p] [พากย์ไทย 2.0 + เสียงอังกฤษ 5.1] [บรรยายไทย + อังกฤษ] [เสียงไทย + ซับไทย] [OPENLOAD]

0

Remember the Titans (2000) ไททัน สู้หมดใจ เกียรติศักดิ์ก้องโลก

โหลดหนัง Remember the Titans (2000) ไททัน สู้หมดใจ เกียรติศักดิ์ก้องโลก/em>

Gegen jede Regel (2000) 1h 53min | Biography, Drama, Sport | 29 March 2001 (Germany) Summary: The true story of a newly appointed African-American coach and his high school team on their first season as a racially integrated unit.
Countries: USALanguages: English

เรื่องย่อ Remember the Titans (2000) ไททัน สู้หมดใจ เกียรติศักดิ์ก้องโลก

ช่วงต้นทศวรรษที่ 70 เป็นช่วงเวลาที่วุ่นวายยุ่งเหยิงอย่างมากในอเมริกา คนในชาติต่างก็แบ่งขั้วจากความแตกต่างกัน มันเป็นยุคของความขัดแย้ง ตั้งแต่ฮอตแพนต์ ศิลปะแนว ปีเตอร์ แมกซ์ และ แกล็มร็อกเกอร์ อย่าง เดวิด โบวี ไปจนถึงปัญหาใหญ่ๆ อย่างเวียตนาม, รัฐเคนตักกี และการเคลื่อนไหวอย่างต่อเนื่อง เพื่อสิทธิมนุษยชน และในทุกๆ ชุมชนในประเทศนี้ การขึ้นรถเมล์ร่วมกันของคนผิวขาวและดำนั้น เป็นประเด็นที่ถกเถียงกันอย่างมาก แต่สำหรับอเล็กแซนเดรียแล้ว มันคือความเป็นจริงที่เกิดขึ้น..

ในเวอร์จิเนียนั้น อเมริกันฟุตบอลระดับไฮสคูล ถือเป็นราชาของรัฐเลยทีเดียว มันเปรียบเป็นวิถีชีวิตของคนที่นั่น เป็นสถาบันแห่งหนึ่ง ที่ต้องเคารพ เทิดทูน แต่ละเกมการแข่งขัน จะได้รับการฉลองชัยอย่างยิ่งใหญ่ ยิ่งกว่าเทศกาลคริสต์มาส การได้เข้าเพลย์ออฟแต่ละหน ก็ยิ่งใหญ่เกินกว่างานฉลองวันชาติของอเมริกาเสียอีก และด้วยการยอมรับจากผู้คนในเฉกนี้เอง ฟุตบอลก็ได้ฝังอยู่ในสายเลือดของคนที่นี่เสียแล้ว

ปี 1971 ฟุตบอลระดับไฮสคูล เป็นทุกสิ่งทุกอย่างของผู้คนในอเล็กแซนเดรีย ทว่า เมื่อบอร์ดบริหารของโรงเรียนในท้องถิ่น ถูกบีบให้เกิดการรวมตัวกัน ระหว่างโรงเรียนคนดำล้วน กับโรงเรียนคนขาวล้วน รากฐานประเพณีเก่าแก่อันยิ่งใหญ่ของฟุตบอลก็ถูกทดสอบ และในสถานการณ์อันคลอนแคลน ที่ดูไม่ค่อยมีหวังนี้เอง เฮอร์แมน บูน (แดนเซล วอชิงตัน) ผู้มาจากเซาธ์แคโรไลนา ก็ได้รับการว่าจ้าง ให้เข้ารับตำแหน่งหัวหน้าโค้ชของ T.C. Williams High Titans แทนที่ บิล โยสต์ (วิล แพตตัน) โค้ชคนเดิมที่มีอายุแก่กว่าเขาหลายปี ผู้เป็นที่รักและนับถือเป็นอย่างมากของชุมชน แถมยังมีแฟนๆ คอยให้กำลังใจอย่างเหนียวแน่นอีกต่างหาก การจ้างบูนมาเป็นโค้ชให้กับ เดอะ ไทแทนส์ ครั้งนี้ นับเป็นสถานการณ์ที่ดูไม่ค่อยมั่นคงนัก

แต่อย่างไรก็ดี เนื่องจากทั้งเขาและโยสต์ ต่างก็ได้เรียนรู้ที่ในการทำงานร่วมกัน ทำให้พวกเขาพบว่า แท้จริงแล้วทั้งสองมีอะไรเหมือนๆ กันนอกจากเรื่องของฟุตบอลเพียงอย่างเดียว ทั้งคู่เป็นคนหยิ่งในเกียรติและศักดิ์ศรี และมีคุณธรรมในการทำงานอย่างแรงกล้า และแม้ว่าทั้งสองจะมีปูมหลังต่างกันอย่างสิ้นเชิง พวกเขาก็ไม่เพียงแค่ช่วยกันหล่อหลอมกลุ่มเด็กหนุ่มผู ้กราดเกรี้ยว ไม่เป็นโล้เป็นพายพวกนี้ ให้มุ่งมั่นในชัยชนะเท่านั้น แต่ยังช่วยสอนให้พวกเขา กลายเป็นเด็กหนุ่มที่ใส่ใจ และมีความรับผิดชอบอีกด้วย ความมุ่งมั่นของพวกเขาที่จะทำงานร่วมกัน และประสบกับชัยชนะนั้น นำมาซึ่งสปิริตของทีม และนำพาให้เมืองที่เคยแตกแยกด้วยอคติและทิฐิ ให้เป็นหนึ่งเดียวอีกด้วย ความรักในเกมกีฬาของทั้งสอง ได้สร้างมิตรภาพให้คงอยู่ตลอดกาล แม้ว่า ประวัติศาสตร์จะไม่ได้จารึกชื่อของวีรบุรุษทั้งสอง นามว่า เฮอร์แมน บูน และ บิล โยสต์ ก็ตาม ทว่าก็เพราะพวกเขานี้เอง ที่ทำให้เวอร์จิเนียคงไว้ซึ่งวลีที่ว่า “Remember the Titans”

Complete name : [MINI-HD]_Remember.the.Titans.2000.720p.BDRip.AC3.x264.One2loadup.com.mkv
Format : Matroska
Format version : Version 2
File size : 4.55 GiB
Duration : 1 h 53 min
Overall bit rate : 5 739 kb/s
Movie name : [MINI-HD]_Remember.the.Titans.2000.720p.BDRip.AC3.One2loadup.com
Encoded date : UTC 2013-08-31 15:13:38
Writing application : mkvmerge v3.4.0 (‘Rapunzel’) built on May 15 2010 09:38:20
Writing library : libebml v0.8.0 + libmatroska v0.9.0

Video
ID : 1
Format : AVC
Format/Info : Advanced Video Codec
Format profile : [email protected]
Format settings : CABAC / 8 Ref Frames
Format settings, CABAC : Yes
Format settings, ReFrames : 8 frames
Codec ID : V_MPEG4/ISO/AVC
Duration : 1 h 53 min
Bit rate : 4 872 kb/s
Width : 1 280 pixels
Height : 544 pixels
Display aspect ratio : 2.35:1
Frame rate mode : Constant
Frame rate : 23.976 FPS
Color space : YUV
Chroma subsampling : 4:2:0
Bit depth : 8 bits
Scan type : Progressive
Bits/(Pixel*Frame) : 0.292
Stream size : 3.78 GiB (83%)
Title : [MINI-HD]_Remember.the.Titans.2000.720p.BDRip.AC3.One2loadup.com
Writing library : x264 core 56 svn-667C
Encoding settings : cabac=1 / ref=5 / deblock=1:-3:-2 / analyse=0x3:0x133 / me=umh / subme=7 / brdo=1 / mixed_ref=1 / me_range=16 / chroma_me=1 / trellis=1 / 8x8dct=1 / cqm=2 / deadzone=21,11 / chroma_qp_offset=0 / threads=3 / nr=0 / decimate=1 / mbaff=0 / bframes=3 / b_pyramid=1 / b_adapt=1 / b_bias=0 / direct=3 / wpredb=1 / bime=1 / keyint=250 / keyint_min=25 / scenecut=40(pre) / rc=2pass / bitrate=4872 / ratetol=1.0 / rceq=’blurCplx^(1-qComp)’ / qcomp=0.60 / qpmin=10 / qpmax=51 / qpstep=4 / cplxblur=20.0 / qblur=0.5 / ip_ratio=1.40 / pb_ratio=1.30
Language : English
Default : Yes
Forced : No

Audio #1
ID : 2
Format : AC-3
Format/Info : Audio Coding 3
Commercial name : Dolby Digital
Codec ID : A_AC3
Duration : 1 h 53 min
Bit rate mode : Constant
Bit rate : 640 kb/s
Channel(s) : 6 channels
Channel layout : L R C LFE Ls Rs
Sampling rate : 48.0 kHz
Frame rate : 31.250 FPS (1536 SPF)
Bit depth : 16 bits
Compression mode : Lossy
Stream size : 520 MiB (11%)
Language : English
Service kind : Complete Main
Default : Yes
Forced : No

Audio #2
ID : 3
Format : AC-3
Format/Info : Audio Coding 3
Commercial name : Dolby Digital
Codec ID : A_AC3
Duration : 1 h 53 min
Bit rate mode : Constant
Bit rate : 224 kb/s
Channel(s) : 2 channels
Channel layout : L R
Sampling rate : 48.0 kHz
Frame rate : 31.250 FPS (1536 SPF)
Bit depth : 16 bits
Compression mode : Lossy
Stream size : 182 MiB (4%)
Language : Thai
Service kind : Complete Main
Default : No
Forced : No

Text #1
ID : 4
Format : VobSub
Muxing mode : zlib
Codec ID : S_VOBSUB
Codec ID/Info : Picture based subtitle format used on DVDs
Language : Thai
Default : Yes
Forced : Yes

Text #2
ID : 5
Format : VobSub
Muxing mode : zlib
Codec ID : S_VOBSUB
Codec ID/Info : Picture based subtitle format used on DVDs
Language : Thai
Default : No
Forced : No

Text #3
ID : 6
Format : UTF-8
Codec ID : S_TEXT/UTF8
Codec ID/Info : UTF-8 Plain Text
Language : English
Default : No
Forced : No

DOWNLOAD


PART01 |||| PART02 |||| PART03 |||| PART04 |||| PART05

PART01 |||| PART02 |||| PART03 |||| PART04 |||| PART05

PART01 |||| PART02 |||| PART03 |||| PART04 |||| PART05

PART01 |||| PART02 |||| PART03 |||| PART04 |||| PART05


Leave A Reply

Your email address will not be published.

%d bloggers like this: