[MINI Super-HQ] The Peanuts Movie (2015) สนูปี้ แอนด์ ชาร์ลี บราวน์ เดอะ พีนัทส์ มูฟวี่ [1080p] [พากย์ไทย 5.1 + เสียงอังกฤษ DTS] [บรรยายไทย + อังกฤษ] [เสียงไทย + ซับไทย] [PANDAFILE]

3

โหลดหนัง The Peanuts Movie (2015) สนูปี้ แอนด์ ชาร์ลี บราวน์ เดอะ พีนัทส์ มูฟวี่

The Peanuts Movie | November 6, 2015 (United States) Summary: Snoopy embarks upon his greatest mission as he and his team take to the skies to pursue their archnemesis, while his best pal Charlie Brown begins his own epic quest back home to win the lov... Read all
Countries: United StatesLanguages: English

เรื่องย่อ The Peanuts Movie (2015) สนูปี้ แอนด์ ชาร์ลี บราวน์ เดอะ พีนัทส์ มูฟวี่

Peanuts ภาพยนตร์การ์ตูนสุดคลาสสิค ที่จะเป็นครั้งแรกที่ สนูปปี้ ชาร์ลี บาวน์ รวมถึงสมาชิกคนอื่นที่เรารู้จักและหลงรักจาก พีนัทส์ การ์ตูนอมตะเรื่องยาวของชาร์ลส ชูลซ์ จะถูกสร้างเป็นภาพยนตร์บนจอยักษ์ครั้งแรกอย่างที่ไม่เคยเห็นมาก่อนในรูปแบบคอมพิวเตอร์กราฟฟิคแอนิเมชั่นระบบ 3 มิติ สนูปปี้ สุนัขบีเกิลที่น่ารักที่สุดในโลกและสุดยอดนักบินได้ร่วมภารกิจครั้งยิ่งใหญ่สุดในชีวิตเมื่อเขาต้องเหินฟ้าล่าคู่ปรับคนสำคัญอย่าง The Red Baron ในขณะที่เพื่อนซี้ของเขาอย่าง ชาร์ลี บราวน์ เองก็ต้องร่วมภารกิจแห่งความกล้าของเขาด้วย!!!

Complete name : [MINI Super-HQ]_The.Peanuts.Movie.2015.1080p.BrRip.DTS.x264.One2loadup.com.mkv
Format : Matroska
Format version : Version 4 / Version 2
File size : 3.85 GiB
Duration : 1 h 28 min
Overall bit rate : 6 250 kb/s
Movie name : [MINI Super-HQ]_The.Peanuts.Movie.2015.1080p.BrRip.DTS.x264.One2loadup.com
Encoded date : UTC 2010-02-22 21:41:31
Writing application : mkvmerge v5.9.0 (‘On The Loose’) built on Dec 9 2012 15:37:01
Writing library : libebml v1.3.0 + libmatroska v1.4.0

Video
ID : 1
Format : AVC
Format/Info : Advanced Video Codec
Format profile : [email protected]
Format settings, CABAC : Yes
Format settings, RefFrames : 4 frames
Codec ID : V_MPEG4/ISO/AVC
Duration : 1 h 28 min
Bit rate : 4 999 kb/s
Width : 1 920 pixels
Height : 1 036 pixels
Display aspect ratio : 1.85:1
Frame rate mode : Constant
Frame rate : 23.976 FPS
Color space : YUV
Chroma subsampling : 4:2:0
Bit depth : 8 bits
Scan type : Progressive
Bits/(Pixel*Frame) : 0.105
Stream size : 3.03 GiB (79%)
Title : [MINI Super-HQ]_The.Peanuts.Movie.2015.1080p.BrRip.DTS.x264.One2loadup.com
Writing library : x264 core 142 r2479 dd79a61
Encoding settings : cabac=1 / ref=4 / deblock=1:0:0 / analyse=0x3:0x113 / me=umh / subme=11 / psy=1 / psy_rd=1.00:0.00 / mixed_ref=0 / me_range=64 / chroma_me=1 / trellis=2 / 8x8dct=1 / cqm=0 / deadzone=21,11 / fast_pskip=1 / chroma_qp_offset=-2 / threads=60 / lookahead_threads=6 / sliced_threads=0 / nr=0 / decimate=1 / interlaced=0 / bluray_compat=0 / constrained_intra=0 / bframes=4 / b_pyramid=2 / b_adapt=2 / b_bias=0 / direct=1 / weightb=1 / open_gop=0 / weightp=2 / keyint=240 / keyint_min=24 / scenecut=40 / intra_refresh=0 / rc_lookahead=10 / rc=2pass / mbtree=1 / bitrate=4999 / ratetol=1.0 / qcomp=0.60 / qpmin=0 / qpmax=69 / qpstep=4 / cplxblur=20.0 / qblur=0.5 / vbv_maxrate=20000 / vbv_bufsize=25000 / nal_hrd=none / filler=0 / ip_ratio=1.40 / aq=1:1.00
Language : English
Default : Yes
Forced : No
Color range : Limited
Color primaries : BT.709
Transfer characteristics : BT.709
Matrix coefficients : BT.709

Audio #1
ID : 2
Format : AC-3
Format/Info : Audio Coding 3
Format settings, Endianness : Big
Codec ID : A_AC3
Duration : 1 h 28 min
Bit rate mode : Constant
Bit rate : 448 kb/s
Channel(s) : 6 channels
Channel positions : Front: L C R, Side: L R, LFE
Sampling rate : 48.0 kHz
Frame rate : 31.250 FPS (1536 SPF)
Bit depth : 16 bits
Compression mode : Lossy
Delay relative to video : -3 ms
Stream size : 282 MiB (7%)
Title : Thai BluRay Master
Language : Thai
Service kind : Complete Main
Default : Yes
Forced : Yes

Audio #2
ID : 3
Format : DTS
Format/Info : Digital Theater Systems
Mode : 16
Format settings, Endianness : Big
Codec ID : A_DTS
Duration : 1 h 28 min
Bit rate mode : Constant
Bit rate : 755 kb/s
Channel(s) : 6 channels
Channel positions : Front: L C R, Side: L R, LFE
Sampling rate : 48.0 kHz
Frame rate : 93.750 FPS (512 SPF)
Bit depth : 24 bits
Compression mode : Lossy
Delay relative to video : -83 ms
Stream size : 475 MiB (12%)
Title : English DTS
Language : English
Default : No
Forced : No

Text #1
ID : 4
Format : VobSub
Codec ID : S_VOBSUB
Codec ID/Info : Picture based subtitle format used on DVDs
Title : Thai 480p
Language : Thai
Default : No
Forced : No

Text #2
ID : 5
Format : VobSub
Codec ID : S_VOBSUB
Codec ID/Info : Picture based subtitle format used on DVDs
Title : Thai 720p
Language : Thai
Default : No
Forced : No

Text #3
ID : 6
Format : VobSub
Codec ID : S_VOBSUB
Codec ID/Info : Picture based subtitle format used on DVDs
Title : Thai 1080p
Language : Thai
Default : Yes
Forced : Yes

Text #4
ID : 7
Format : VobSub
Codec ID : S_VOBSUB
Codec ID/Info : Picture based subtitle format used on DVDs
Title : Thai 1080p Yellow
Language : Thai
Default : No
Forced : No

Text #5
ID : 8
Format : VobSub
Codec ID : S_VOBSUB
Codec ID/Info : Picture based subtitle format used on DVDs
Title : Thai 1080p BIG
Language : Thai
Default : No
Forced : No

Text #6
ID : 9
Format : PGS
Codec ID : S_HDMV/PGS
Codec ID/Info : Picture based subtitle format used on BDs/HD-DVDs
Title : Thai PGS BluRay Master
Language : Thai
Default : No
Forced : No

Text #7
ID : 10
Format : VobSub
Codec ID : S_VOBSUB
Codec ID/Info : Picture based subtitle format used on DVDs
Title : English
Language : English
Default : No
Forced : No

Menu
00:00:00.000 : :Chapter 1
00:05:19.216 : :Chapter 2
00:07:58.334 : :Chapter 3
00:11:03.018 : :Chapter 4
00:13:35.212 : :Chapter 5
00:17:49.299 : :Chapter 6
00:20:56.152 : :Chapter 7
00:23:28.054 : :Chapter 8
00:25:35.723 : :Chapter 9
00:28:08.334 : :Chapter 10
00:32:36.644 : :Chapter 11
00:36:23.287 : :Chapter 12
00:41:14.244 : :Chapter 13
00:44:19.972 : :Chapter 14
00:47:57.439 : :Chapter 15
00:51:47.544 : :Chapter 16
00:55:29.641 : :Chapter 17
01:00:15.301 : :Chapter 18
01:03:27.201 : :Chapter 19
01:04:53.537 : :Chapter 20
01:08:59.992 : :Chapter 21
01:12:24.655 : :Chapter 22
01:16:15.594 : :Chapter 23
01:17:21.117 : :Chapter 24

DOWNLOAD


PART01 |||| PART02 |||| PART03 |||| PART04

PART01 |||| PART02 |||| PART03 |||| PART04

PART01 |||| PART02 |||| PART03 |||| PART04

PART01 |||| PART02 |||| PART03 |||| PART04

PART01 |||| PART02 |||| PART03 |||| PART04


3 Comments
  1. Boy says

    โหลดไม่ได้แล้วครับ

    1. Admin
      Admin says

      แก้ไขเรียบร้อยฮ๊ะ

      1. Boy says

        ขอบคุณครับ

Leave A Reply

อีเมล์ของคุณจะไม่แสดงให้เห็น Your email address will not be published.

%d bloggers like this: