[MINI Super-HQ] Our 30 Minute Sessions (2020) เทปลับสลับร่างมารัก [1080p] [พากย์ไทย 5.1 + เสียงญี่ปุ่น DTS] [บรรยายไทย + อังกฤษ] [เสียงไทย + ซับไทย] [PANDAFILE]

0

โหลดหนัง Our 30 Minute Sessions (2020) เทปลับสลับร่างมารัก

Our 30 Minute Sessions (2020) 1h 54min | Drama, Fantasy, Music | 24 January 2020 (Japan) Summary: Aki Miyata was a musician and died one year ago. He had bright and positive personality. Sota Kubota is a university student, who is not good at socializing with people. One day, Sota picks... See full summary »
Countries: JapanLanguages: Japanese

เรื่องย่อ Our 30 Minute Sessions (2020) เทปลับสลับร่างมารัก

ผู้สร้าง The 100th Love with You จะกลับมาทำให้คุณซึ้งไปกับ Our 30 Minute Sessions เทปลับสลับร่างมารักผลงานรักครั้งใหม่ที่ได้สองหนุ่มหล่อ อาราตะ แมคเคนยู และ คิตามุระ ทาคุมิ ที่จะมารับบทเป็น มิยาตะ อากิ(แมคเคนยู) นักดนตรีที่ประสบอุบัติเหตุเสียชีวิต และ คุโบตะ โซตะ (ทาคุมิ คิตะมุระ) หนุ่มขี้อายที่บังเอิญเก็บเทปคาสเซตต์ม้วนเดโมก่อนเป ็นนักร้องของมิยาตะได้ซึ่งหากเล่นเทปนี้มิยาตะจะขอยืมร่างของคุโบตะได้เป็น เวลา 30 นาที เรื่องราวของ ECHOLL วงดนตรีฝีมือดีที่ได้แยกวงกันไปก่อนการที่จะเดบิวต์เ มื่อหนึ่งปีก่อนอยู่มาวันหนึ่ง โซตะ หนุ่มนักศึกษาได้ปรากฏตัวขึ้นต่อหน้าเมมเบอร์ของวงและได้เข้าหาเมมเบอร์แต่ละคนทั้ง ยามะเคน, ชิเงตะ และ โมริ เพื่อให้กลับมาฟอร์มวงด้วยกันอีกครั้ง ด้วยเสียงร้องเพลงอันน่าหลงใหลและนิสัยอะไรบางอย่างที่ทำให้ไม่มีใครสามารถเกลียดได ้ลงของโซตะ เหล่าเมมเบอร์ของวงก็เริ่มใจอ่อนโดยที่ไม่รู้เลยว่าอันที่จริงแล้ว ภายในร่างกายของโซตะนั้นก็คือ อากิ อดีตนักร้องนำของวง ECHOLL ที่เสียชีวิตไปเมื่อปีที่แล้ว! ด้วยความบังเอิญโซตะได้เก็บและลองเล่นเทปคาสเซตต์ของ อากิ และเพียง 30 นาทีที่เล่นเทปม้วนนั้น อากิจะสามารถยืมร่างของโซตะได!!!

Complete name : [MINI Super-HQ]_Our.30.Minute.Sessions.2020.1080p.BrRip.DTS.x264.One2loadup.com.mkv
Format : Matroska
Format version : Version 4
File size : 4.46 GiB
Duration : 1 h 54 min
Overall bit rate : 5 588 kb/s
Movie name : [MINI Super-HQ]_Our.30.Minute.Sessions.2020.1080p.BrRip.DTS.x264.One2loadup.com
Encoded date : UTC 2010-02-22 21:41:31
Writing application : mkvmerge v5.9.0 (‘On The Loose’) built on Dec 9 2012 15:37:01
Writing library : libebml v1.3.0 + libmatroska v1.4.0

Video
ID : 1
Format : AVC
Format/Info : Advanced Video Codec
Format profile : [email protected]
Format settings : CABAC / 4 Ref Frames
Format settings, CABAC : Yes
Format settings, ReFrames : 4 frames
Muxing mode : Header stripping
Codec ID : V_MPEG4/ISO/AVC
Duration : 1 h 54 min
Bit rate : 3 606 kb/s
Width : 1 920 pixels
Height : 804 pixels
Display aspect ratio : 2.40:1
Frame rate mode : Constant
Frame rate : 23.976 (24000/1001) FPS
Color space : YUV
Chroma subsampling : 4:2:0
Bit depth : 8 bits
Scan type : Progressive
Bits/(Pixel*Frame) : 0.097
Stream size : 2.90 GiB (65%)
Title : [MINI Super-HQ]_Our.30.Minute.Sessions.2020.1080p.BrRip.DTS.x264.One2loadup.com
Writing library : x264 core 157 r2935 545de2f
Encoding settings : cabac=1 / ref=3 / deblock=1:0:0 / analyse=0x3:0x133 / me=umh / subme=11 / psy=1 / psy_rd=1.00:0.00 / mixed_ref=1 / me_range=48 / chroma_me=1 / trellis=2 / 8x8dct=1 / cqm=0 / deadzone=21,11 / fast_pskip=1 / chroma_qp_offset=-2 / threads=12 / lookahead_threads=1 / sliced_threads=0 / nr=0 / decimate=1 / interlaced=0 / bluray_compat=0 / constrained_intra=0 / bframes=3 / b_pyramid=2 / b_adapt=1 / b_bias=0 / direct=3 / weightb=1 / open_gop=0 / weightp=2 / keyint=240 / keyint_min=24 / scenecut=40 / intra_refresh=0 / rc_lookahead=60 / rc=2pass / mbtree=1 / bitrate=3606 / ratetol=1.0 / qcomp=0.60 / qpmin=0 / qpmax=69 / qpstep=4 / cplxblur=20.0 / qblur=0.5 / vbv_maxrate=25000 / vbv_bufsize=31250 / nal_hrd=none / filler=0 / ip_ratio=1.40 / aq=1:1.00
Language : Japanese
Default : Yes
Forced : No
Color range : Limited
Color primaries : BT.709
Transfer characteristics : BT.709
Matrix coefficients : BT.709

Audio #1
ID : 2
Format : AC-3
Format/Info : Audio Coding 3
Commercial name : Dolby Digital
Codec ID : A_AC3
Duration : 1 h 54 min
Bit rate mode : Constant
Bit rate : 448 kb/s
Channel(s) : 6 channels
Channel layout : L R C LFE Ls Rs
Sampling rate : 48.0 kHz
Frame rate : 31.250 FPS (1536 SPF)
Bit depth : 16 bits
Compression mode : Lossy
Delay relative to video : -5 ms
Stream size : 366 MiB (8%)
Title : Thai DVD Master
Language : Thai
Service kind : Complete Main
Default : Yes
Forced : Yes

Audio #2
ID : 3
Format : DTS
Format/Info : Digital Theater Systems
Codec ID : A_DTS
Duration : 1 h 54 min
Bit rate mode : Constant
Bit rate : 755 kb/s
Channel(s) : 6 channels
Channel layout : C L R Ls Rs LFE
Sampling rate : 48.0 kHz
Frame rate : 93.750 FPS (512 SPF)
Bit depth : 24 bits
Compression mode : Lossy
Delay relative to video : -5 ms
Stream size : 617 MiB (14%)
Title : Japanese DTS
Language : Japanese
Default : No
Forced : No

Audio #3
ID : 4
Format : AC-3
Format/Info : Audio Coding 3
Commercial name : Dolby Digital
Codec ID : A_AC3
Duration : 1 h 54 min
Bit rate mode : Constant
Bit rate : 640 kb/s
Channel(s) : 6 channels
Channel layout : L R C LFE Ls Rs
Sampling rate : 48.0 kHz
Frame rate : 31.250 FPS (1536 SPF)
Bit depth : 16 bits
Compression mode : Lossy
Delay relative to video : -5 ms
Stream size : 523 MiB (11%)
Title : Japanese AC3 5.1
Language : Japanese
Service kind : Complete Main
Default : No
Forced : No

Text #1
ID : 5
Format : VobSub
Codec ID : S_VOBSUB
Codec ID/Info : Picture based subtitle format used on DVDs
Title : Thai 720p
Language : Thai
Default : No
Forced : No

Text #2
ID : 6
Format : VobSub
Codec ID : S_VOBSUB
Codec ID/Info : Picture based subtitle format used on DVDs
Title : Thai 1080p
Language : Thai
Default : Yes
Forced : Yes

Text #3
ID : 7
Format : VobSub
Codec ID : S_VOBSUB
Codec ID/Info : Picture based subtitle format used on DVDs
Title : Thai 1080p Yellow
Language : Thai
Default : No
Forced : No

Text #4
ID : 8
Format : VobSub
Codec ID : S_VOBSUB
Codec ID/Info : Picture based subtitle format used on DVDs
Title : Thai 1080p Out
Language : Thai
Default : No
Forced : No

Text #5
ID : 9
Format : VobSub
Codec ID : S_VOBSUB
Codec ID/Info : Picture based subtitle format used on DVDs
Title : Thai 1080p BIG
Language : Thai
Default : No
Forced : No

Text #6
ID : 10
Format : VobSub
Codec ID : S_VOBSUB
Codec ID/Info : Picture based subtitle format used on DVDs
Title : Thai 1080p Out [BIG]
Language : Thai
Default : No
Forced : No

Text #7
ID : 11
Format : PGS
Codec ID : S_HDMV/PGS
Codec ID/Info : Picture based subtitle format used on BDs/HD-DVDs
Title : Thai PGS
Language : Thai
Default : No
Forced : No

Text #8
ID : 12
Format : PGS
Codec ID : S_HDMV/PGS
Codec ID/Info : Picture based subtitle format used on BDs/HD-DVDs
Title : Thai PGS Yellow
Language : Thai
Default : No
Forced : No

Text #9
ID : 13
Format : PGS
Codec ID : S_HDMV/PGS
Codec ID/Info : Picture based subtitle format used on BDs/HD-DVDs
Title : Thai PGS Out
Language : Thai
Default : No
Forced : No

Text #10
ID : 14
Format : VobSub
Codec ID : S_VOBSUB
Codec ID/Info : Picture based subtitle format used on DVDs
Title : English
Language : English
Default : No
Forced : No

Menu
00:00:00.000 : :Chapter 1
00:04:34.065 : :Chapter 2
00:13:17.880 : :Chapter 3
00:20:52.001 : :Chapter 4
00:30:36.626 : :Chapter 5
00:40:23.713 : :Chapter 6
00:55:16.480 : :Chapter 7
01:02:12.479 : :Chapter 8
01:15:43.706 : :Chapter 9
01:23:46.980 : :Chapter 10
01:31:22.560 : :Chapter 11
01:40:04.999 : :Chapter 12
01:50:00.761 : :Chapter 13

DOWNLOAD


PART01 |||| PART02 |||| PART03 |||| PART04 |||| PART05

PART01 |||| PART02 |||| PART03 |||| PART04 |||| PART05

PART01 |||| PART02 |||| PART03 |||| PART04 |||| PART05

PART01 |||| PART02 |||| PART03 |||| PART04 |||| PART05

PART01 |||| PART02 |||| PART03 |||| PART04 |||| PART05



แจ้งหนังเสีย หรือโหลดไม่ได้ ทั้งลิ้งฟรีและ vip สามารถกดที่รูปด้านบนนี้ได้เลย

: Disable Comments
%d bloggers like this: