[MINI Super-HQ] Now You See Me 2 (2016) อาชญากลปล้นโลก ภาค 2 [1080p] [พากย์ไทย 5.1 + เสียงอังกฤษ DTS] [บรรยายไทย + อังกฤษ] [เสียงไทย + ซับไทย] [DOSYAUPLOAD]

0

โหลดหนัง Now You See Me 2 (2016) อาชญากลปล้นโลก ภาค 2

Now You See Me 2 (2016) 129min | Action, Adventure, Comedy | 10 June 2016 (USA) Summary: The Four Horsemen resurface, and are forcibly recruited by a tech genius to pull off their most impossible heist yet.
Countries: USA, Mexico, France, Hong KongLanguages: English, Mandarin, Cantonese

เรื่องย่อ Now You See Me 2 (2016) อาชญากลปล้นโลก ภาค 2

จะบอกเล่าถึงเรื่องราว 1 ปีหลังจากเหตุการณ์ในภาคที่แล้วที่เหล่า ‘กลุ่มจตุรอาชา’ (หรือ The Four Horsemen) ได้ร่วมกันชิงไหวชิงพริบเอาชนะเจ้าหน้าที่ FBI ได้สำเร็จ รวมไปถึงยังได้รับเสียงชื่นชมและคำสรรเสริญจากเหล่าผู้คนมากมายถึงความชาญฉลาดของพวกเขา กลับมาในครั้งนี้พวกเขาก็จะขอแท็กทีมร่วมกันทำภารกิจสุดยิ่งใหญ่เหมือนเช่นเคย แต่คราวนี้จะต้องเจอศัตรูตัวฉกาจรายใหม่ที่มีฝีมือยอดเยี่ยมและทัดเทียมไม่แพ้พวกเขา นี่จึงกลายเป็นจุดเริ่มต้นของการปล้นครั้งใหม่ที่ยิ่งใหญ่และอันตรายกว่าเดิมหลายเท่าตัว!!!

Complete name : [MINI Super-HQ]_Now.You.See.Me.2.2016.1080p.BrRip.DTS.x264.One2loadup.com.mkv
Format : Matroska
Format version : Version 4
File size : 4.31 GiB
Duration : 2 h 8 min
Overall bit rate : 4 790 kb/s
Movie name : [MINI Super-HQ]_Now.You.See.Me.2.2016.1080p.BrRip.DTS.x264.One2loadup.com
Encoded date : UTC 2010-02-22 21:41:31
Writing application : mkvmerge v5.9.0 (‘On The Loose’) built on Dec 9 2012 15:37:01
Writing library : libebml v1.3.0 + libmatroska v1.4.0

Video
ID : 1
Format : AVC
Format/Info : Advanced Video Codec
Format profile : [email protected]
Format settings : CABAC / 4 Ref Frames
Format settings, CABAC : Yes
Format settings, Reference : 4 frames
Codec ID : V_MPEG4/ISO/AVC
Duration : 2 h 8 min
Bit rate : 3 108 kb/s
Width : 1 920 pixels
Height : 800 pixels
Display aspect ratio : 2.40:1
Frame rate mode : Constant
Frame rate : 23.976 (24000/1001) FPS
Color space : YUV
Chroma subsampling : 4:2:0
Bit depth : 8 bits
Scan type : Progressive
Bits/(Pixel*Frame) : 0.084
Stream size : 2.80 GiB (65%)
Title : [MINI Super-HQ]_Now.You.See.Me.2.2016.1080p.BrRip.DTS.x264.One2loadup.com
Language : English
Default : Yes
Forced : No
Color range : Limited
Color primaries : BT.709
Transfer characteristics : BT.709
Matrix coefficients : BT.709

Audio #1
ID : 2
Format : AC-3
Format/Info : Audio Coding 3
Commercial name : Dolby Digital
Codec ID : A_AC3
Duration : 2 h 8 min
Bit rate mode : Constant
Bit rate : 448 kb/s
Channel(s) : 6 channels
Channel layout : L R C LFE Ls Rs
Sampling rate : 48.0 kHz
Frame rate : 31.250 FPS (1536 SPF)
Compression mode : Lossy
Delay relative to video : 25 ms
Stream size : 413 MiB (9%)
Title : Thai DVD Master
Language : Thai
Service kind : Complete Main
Default : Yes
Forced : Yes

Audio #2
ID : 3
Format : DTS
Format/Info : Digital Theater Systems
Codec ID : A_DTS
Duration : 2 h 8 min
Bit rate mode : Constant
Bit rate : 755 kb/s
Channel(s) : 6 channels
Channel layout : C L R Ls Rs LFE
Sampling rate : 48.0 kHz
Frame rate : 93.750 FPS (512 SPF)
Bit depth : 24 bits
Compression mode : Lossy
Delay relative to video : 4 ms
Stream size : 696 MiB (16%)
Title : English DTS
Language : English
Default : No
Forced : No

Audio #3
ID : 4
Format : AC-3
Format/Info : Audio Coding 3
Commercial name : Dolby Digital
Codec ID : A_AC3
Duration : 2 h 8 min
Bit rate mode : Constant
Bit rate : 384 kb/s
Channel(s) : 6 channels
Channel layout : L R C LFE Ls Rs
Sampling rate : 48.0 kHz
Frame rate : 31.250 FPS (1536 SPF)
Compression mode : Lossy
Delay relative to video : 25 ms
Stream size : 354 MiB (8%)
Title : Esan
Language : Thai
Service kind : Complete Main
Default : No
Forced : No

Text #1
ID : 5
Format : VobSub
Codec ID : S_VOBSUB
Codec ID/Info : Picture based subtitle format used on DVDs
Title : Thai 480p From DVD Master
Language : Thai
Default : No
Forced : No

Text #2
ID : 6
Format : VobSub
Codec ID : S_VOBSUB
Codec ID/Info : Picture based subtitle format used on DVDs
Title : Thai 720p
Language : Thai
Default : No
Forced : No

Text #3
ID : 7
Format : VobSub
Codec ID : S_VOBSUB
Codec ID/Info : Picture based subtitle format used on DVDs
Title : Thai 1080p
Language : Thai
Default : Yes
Forced : Yes

Text #4
ID : 8
Format : VobSub
Codec ID : S_VOBSUB
Codec ID/Info : Picture based subtitle format used on DVDs
Title : Thai 1080p Yellow
Language : Thai
Default : No
Forced : No

Text #5
ID : 9
Format : VobSub
Codec ID : S_VOBSUB
Codec ID/Info : Picture based subtitle format used on DVDs
Title : Thai 1080p Out
Language : Thai
Default : No
Forced : No

Text #6
ID : 10
Format : VobSub
Codec ID : S_VOBSUB
Codec ID/Info : Picture based subtitle format used on DVDs
Title : Thai 1080p BIG
Language : Thai
Default : No
Forced : No

Text #7
ID : 11
Format : VobSub
Codec ID : S_VOBSUB
Codec ID/Info : Picture based subtitle format used on DVDs
Title : Thai 1080p Out [BIG]
Language : Thai
Default : No
Forced : No

Text #8
ID : 12
Format : PGS
Codec ID : S_HDMV/PGS
Codec ID/Info : Picture based subtitle format used on BDs/HD-DVDs
Title : Thai PGS
Language : Thai
Default : No
Forced : No

Text #9
ID : 13
Format : PGS
Codec ID : S_HDMV/PGS
Codec ID/Info : Picture based subtitle format used on BDs/HD-DVDs
Title : Thai PGS Yellow
Language : Thai
Default : No
Forced : No

Text #10
ID : 14
Format : PGS
Codec ID : S_HDMV/PGS
Codec ID/Info : Picture based subtitle format used on BDs/HD-DVDs
Title : Thai PGS Out
Language : Thai
Default : No
Forced : No

Text #11
ID : 15
Format : UTF-8
Codec ID : S_TEXT/UTF8
Codec ID/Info : UTF-8 Plain Text
Title : English
Language : English
Default : No
Forced : No

Menu
00:00:00.000 : en:Chapter 1
00:06:46.406 : en:Chapter 2
00:15:45.111 : en:Chapter 3
00:25:10.843 : en:Chapter 4
00:32:58.101 : en:Chapter 5
00:39:38.918 : en:Chapter 6
00:47:48.991 : en:Chapter 7
00:53:15.984 : en:Chapter 8
01:03:34.519 : en:Chapter 9
01:13:41.834 : en:Chapter 10
01:20:04.842 : en:Chapter 11
01:26:18.673 : en:Chapter 12
01:32:18.324 : en:Chapter 13
01:38:28.110 : en:Chapter 14
01:47:54.802 : en:Chapter 15
01:53:46.194 : en:Chapter 16

DOWNLOAD


PART01 |||| PART02 |||| PART03 |||| PART04 |||| PART05

PART01 |||| PART02 |||| PART03 |||| PART04 |||| PART05

PART01 |||| PART02 |||| PART03 |||| PART04 |||| PART05

PART01 |||| PART02 |||| PART03 |||| PART04 |||| PART05

PART01 |||| PART02 |||| PART03 |||| PART04 |||| PART05


Leave A Reply

Your email address will not be published.

%d bloggers like this: