[MINI Super-HQ] Nocturnal Animals (2016) คืนทมิฬ [1080p] [พากย์อังกฤษ DTS] [Soundtrack บรรยายไทย + อังกฤษ] [เสียงอังกฤษ + ซับไทย] [DOSYAUPLOAD]

0

โหลดหนัง Nocturnal Animals (2016) คืนทมิฬ

Nocturnal Animals (2016) 1h 56min | Drama, Thriller | 9 December 2016 (USA) Summary: A wealthy art gallery owner is haunted by her ex-husband's novel, a violent thriller she interprets as a symbolic revenge tale.
Countries: USALanguages: English

เรื่องย่อ Nocturnal Animals (2016) คืนทมิฬ

เอมี่ อดัมส์ ประชันบทบาทกับเจค จิลเลนฮาล ใน Nocturnal Animals คืนทมิฬภาพยนตร์จากฝีมือเขียนบทและกำกับโดย ทอม ฟอร์ด ซึ่งคว้ารางวัลแกรนด์ จูรี่ ไพรซ์ (Grand Jury Prize) จากเทศกาลภาพยนตร์นานาชาติเวนิสปีล่าสุดมาแล้วเตรียมพบกับภาพยนตร์โรแมนติกทริลเลอร์สุดระทึก ที่เล่าถึงความสัมพันธ์อันน่าตกตะลึง ความตึงเครียดที่เกิดขึ้น รวมถึงความจริงในด้านมืดของคู่อดีตสามีภรรยาที่ถ่ายทอดให้เห็นถึงความรัก, ความโหดร้าย, การแก้แค้น และการเอาคืน ซูซาน มอร์โรว์ (เอมี่ อดัมส์) นักค้างานศิลปะในลอสแองเจลิสใช้ชีวิตสุดหรูกับสามี ฮัตตัน มอร์โรว์ (อาร์มี่ แฮมเมอร์) แต่ชีวิตเธอก็ยังไม่สมบูรณ์ เพราะสามีของเธอเดินทางเพื่อทำธุรกิจอยู่บ่อย ๆ ต่อมา ซูซานได้รับต้นฉบับของนิยายเรื่อง Nocturnal Animals ที่เขียนโดยอดีตสามี เอ็ดเวิร์ด เชฟฟิลด์ (เจค จิลเลนฮาล) ซึ่งไม่ได้ติดต่อกันมานานหลายปีเนื้อหาของนิยายมีความรุนแรงและสะเทือนใจ ขณะที่อ่านนิยาย เธออดไม่ได้ที่จะนึกถึงความรักของระหว่างเธอกับเขาใน อดีต!!!

Complete name : [MINI Super-HQ]_Nocturnal.Animals.2016.1080p.BrRip.DTS.x264.Subthai.One2loadup.com.mkv
Format : Matroska
Format version : Version 4
File size : 3.63 GiB
Duration : 1 h 56 min
Overall bit rate : 4 480 kb/s
Movie name : [MINI Super-HQ]_Nocturnal.Animals.2016.1080p.BrRip.DTS.x264.Subthai.One2loadup.com
Encoded date : UTC 2010-02-22 21:41:31
Writing application : mkvmerge v5.9.0 (‘On The Loose’) built on Dec 9 2012 15:37:01
Writing library : libebml v1.3.0 + libmatroska v1.4.0

Video
ID : 1
Format : AVC
Format/Info : Advanced Video Codec
Format profile : [email protected]
Format settings : CABAC / 4 Ref Frames
Format settings, CABAC : Yes
Format settings, ReFrames : 4 frames
Codec ID : V_MPEG4/ISO/AVC
Duration : 1 h 56 min
Bit rate : 3 536 kb/s
Width : 1 920 pixels
Height : 792 pixels
Display aspect ratio : 2.40:1
Frame rate mode : Constant
Frame rate : 23.976 (24000/1001) FPS
Color space : YUV
Chroma subsampling : 4:2:0
Bit depth : 8 bits
Scan type : Progressive
Bits/(Pixel*Frame) : 0.097
Stream size : 2.95 GiB (81%)
Title : [MINI Super-HQ]_Nocturnal.Animals.2016.1080p.BrRip.DTS.x264.Subthai.One2loadup.com
Writing library : x264 core 130 r2273 b3065e6
Encoding settings : cabac=1 / ref=3 / deblock=1:0:0 / analyse=0x3:0x113 / me=umh / subme=11 / psy=1 / psy_rd=1.00:0.00 / mixed_ref=1 / me_range=48 / chroma_me=1 / trellis=2 / 8x8dct=1 / cqm=0 / deadzone=21,11 / fast_pskip=1 / chroma_qp_offset=-2 / threads=10 / lookahead_threads=1 / sliced_threads=0 / nr=0 / decimate=1 / interlaced=0 / bluray_compat=0 / constrained_intra=0 / bframes=3 / b_pyramid=2 / b_adapt=1 / b_bias=0 / direct=1 / weightb=1 / open_gop=0 / weightp=2 / keyint=240 / keyint_min=24 / scenecut=40 / intra_refresh=0 / rc_lookahead=40 / rc=2pass / mbtree=1 / bitrate=3536 / ratetol=1.0 / qcomp=0.60 / qpmin=0 / qpmax=69 / qpstep=4 / cplxblur=20.0 / qblur=0.5 / ip_ratio=1.40 / aq=1:1.00
Language : English
Default : Yes
Forced : No
Color range : Limited
Color primaries : BT.709
Transfer characteristics : BT.709
Matrix coefficients : BT.709

Audio
ID : 2
Format : DTS
Format/Info : Digital Theater Systems
Codec ID : A_DTS
Duration : 1 h 56 min
Bit rate mode : Constant
Bit rate : 755 kb/s
Channel(s) : 6 channels
Channel layout : C L R Ls Rs LFE
Sampling rate : 48.0 kHz
Frame rate : 93.750 FPS (512 SPF)
Bit depth : 24 bits
Compression mode : Lossy
Stream size : 627 MiB (17%)
Title : English DTS
Language : English
Default : Yes
Forced : No

Text #1
ID : 3
Format : VobSub
Codec ID : S_VOBSUB
Codec ID/Info : Picture based subtitle format used on DVDs
Title : Thai 480p From DVD Master
Language : Thai
Default : No
Forced : No

Text #2
ID : 4
Format : VobSub
Codec ID : S_VOBSUB
Codec ID/Info : Picture based subtitle format used on DVDs
Title : Thai 720p
Language : Thai
Default : No
Forced : No

Text #3
ID : 5
Format : VobSub
Codec ID : S_VOBSUB
Codec ID/Info : Picture based subtitle format used on DVDs
Title : Thai 1080p
Language : Thai
Default : Yes
Forced : Yes

Text #4
ID : 6
Format : VobSub
Codec ID : S_VOBSUB
Codec ID/Info : Picture based subtitle format used on DVDs
Title : Thai 1080p Yellow
Language : Thai
Default : No
Forced : No

Text #5
ID : 7
Format : VobSub
Codec ID : S_VOBSUB
Codec ID/Info : Picture based subtitle format used on DVDs
Title : Thai 1080p Out
Language : Thai
Default : No
Forced : No

Text #6
ID : 8
Format : VobSub
Codec ID : S_VOBSUB
Codec ID/Info : Picture based subtitle format used on DVDs
Title : Thai 1080p BIG
Language : Thai
Default : No
Forced : No

Text #7
ID : 9
Format : VobSub
Codec ID : S_VOBSUB
Codec ID/Info : Picture based subtitle format used on DVDs
Title : Thai 1080p Out [BIG]
Language : Thai
Default : No
Forced : No

Text #8
ID : 10
Format : PGS
Codec ID : S_HDMV/PGS
Codec ID/Info : Picture based subtitle format used on BDs/HD-DVDs
Title : Thai PGS
Language : Thai
Default : No
Forced : No

Text #9
ID : 11
Format : PGS
Codec ID : S_HDMV/PGS
Codec ID/Info : Picture based subtitle format used on BDs/HD-DVDs
Title : Thai PGS Yellow
Language : Thai
Default : No
Forced : No

Text #10
ID : 12
Format : PGS
Codec ID : S_HDMV/PGS
Codec ID/Info : Picture based subtitle format used on BDs/HD-DVDs
Title : Thai PGS Out
Language : Thai
Default : No
Forced : No

Text #11
ID : 13
Format : VobSub
Codec ID : S_VOBSUB
Codec ID/Info : Picture based subtitle format used on DVDs
Title : English
Language : English
Default : No
Forced : No

Menu
00:00:00.000 : en:Chapter 1
00:05:25.867 : en:Chapter 2
00:09:35.742 : en:Chapter 3
00:13:32.895 : en:Chapter 4
00:19:32.755 : en:Chapter 5
00:29:48.954 : en:Chapter 6
00:34:29.901 : en:Chapter 7
00:40:00.732 : en:Chapter 8
00:45:11.334 : en:Chapter 9
00:52:55.422 : en:Chapter 10
00:59:37.449 : en:Chapter 11
01:04:15.935 : en:Chapter 12
01:12:49.615 : en:Chapter 13
01:20:03.257 : en:Chapter 14
01:25:12.065 : en:Chapter 15
01:31:53.424 : en:Chapter 16
01:35:24.010 : en:Chapter 17
01:40:49.043 : en:Chapter 18
01:45:04.631 : en:Chapter 19
01:49:45.704 : en:Chapter 20

DOWNLOAD


PART01 |||| PART02 |||| PART03 |||| PART04

PART01 |||| PART02 |||| PART03 |||| PART04

PART01 |||| PART02 |||| PART03 |||| PART04

PART01 |||| PART02 |||| PART03 |||| PART04

PART01 |||| PART02 |||| PART03 |||| PART04



แจ้งหนังเสีย หรือโหลดไม่ได้ ทั้งลิ้งฟรีและ vip สามารถกดที่รูปด้านบนนี้ได้เลย

: Disable Comments
%d bloggers like this: