[MINI Super-HQ] No Time to Die (2021) 007 พยัคฆ์ร้ายฝ่าเวลามรณะ [1080p] [พากย์ไทย 5.1 + เสียงอังกฤษ DTS] [บรรยายไทย + อังกฤษ] [เสียงไทย + ซับไทย] [USERLOAD]

0

โหลดหนัง No Time to Die (2021) 007 พยัคฆ์ร้ายฝ่าเวลามรณะ

No Time to Die Action, Adventure, Thriller | October 8, 2021 (United States) Summary: James Bond has left active service. His peace is short-lived when Felix Leiter, an old friend from the CIA, turns up asking for help, leading Bond onto the trail of a mysterious villain arme... Read all
Countries: United Kingdom, United StatesLanguages: English, French, Italian, Russian, Spanish

เรื่องย่อ No Time to Die (2021) 007 พยัคฆ์ร้ายฝ่าเวลามรณะ

เรื่องราวของ เจมส์ บอนด์ (แดเนียล เคร็ก) ได้เลิกรับใช้ทางการและกำลังดื่มด่ำกับชีวิตที่แสนเงียบสงบในจาไมก้าแต่ช่วงเวลาสงบสุขของเขาช่างสั้นนักเพราะเพื่อนเก่าของเขา เฟลิกซ์ ไลเตอร์ (เจฟฟรีย์ ไรท์) จากซีไอเอได้ปรากฏตัวมาขอความช่วยเหลือจากเขาภารกิจในการช่วยเหลือนักวิทยาศาสตร์ที่ถูกลักพาตัวไป กลับกลายเป็นเรื่องที่ร้ายแรงเกินกว่าที่คาดคิดไว้มากมายและนำบอนด์ไปสู่ร่องรอยของวายร้ายลึกลับที่มีเทคโนโลยีใหม่สุดอันตรายเป็นอาวุธ!!!

Complete name : [MINI Super-HQ]_No.Time.to.Die.2021.1080p.BrRip.DTS.x264.One2loadup.com.mkv
Format : Matroska
Format version : Version 4
File size : 5.29 GiB
Duration : 2 h 43 min
Overall bit rate : 4 632 kb/s
Movie name : [MINI Super-HQ]_No.Time.to.Die.2021.1080p.BrRip.DTS.x264.One2loadup.com
Encoded date : UTC 2022-01-07 08:20:42
Writing application : mkvmerge v9.8.0 (‘Kuglblids’) 64bit
Writing library : libebml v1.3.4 + libmatroska v1.4.5

Video
ID : 1
Format : AVC
Format/Info : Advanced Video Codec
Format profile : [email protected]
Format settings : CABAC / 4 Ref Frames
Format settings, CABAC : Yes
Format settings, Reference : 4 frames
Codec ID : V_MPEG4/ISO/AVC
Duration : 2 h 43 min
Bit rate : 3 172 kb/s
Width : 1 920 pixels
Height : 804 pixels
Display aspect ratio : 2.40:1
Frame rate mode : Constant
Frame rate : 23.976 (24000/1001) FPS
Color space : YUV
Chroma subsampling : 4:2:0
Bit depth : 8 bits
Scan type : Progressive
Bits/(Pixel*Frame) : 0.086
Stream size : 3.62 GiB (68%)
Title : [MINI Super-HQ]_No.Time.to.Die.2021.1080p.BrRip.DTS.x264.One2loadup.com
Writing library : x264 core 146 r2538 121396c
Encoding settings : cabac=1 / ref=5 / deblock=1:-3:-3 / analyse=0x3:0x133 / me=tesa / subme=11 / psy=1 / psy_rd=1.00:0.15 / mixed_ref=1 / me_range=48 / chroma_me=1 / trellis=2 / 8x8dct=1 / cqm=0 / deadzone=21,11 / fast_pskip=1 / chroma_qp_offset=-3 / threads=54 / lookahead_threads=4 / sliced_threads=0 / nr=0 / decimate=1 / interlaced=0 / bluray_compat=1 / constrained_intra=0 / bframes=3 / b_pyramid=1 / b_adapt=2 / b_bias=0 / direct=3 / weightb=1 / open_gop=0 / weightp=1 / keyint=250 / keyint_min=1 / scenecut=40 / intra_refresh=0 / rc_lookahead=60 / rc=2pass / mbtree=1 / bitrate=3172 / ratetol=1.0 / qcomp=0.60 / qpmin=0 / qpmax=69 / qpstep=4 / cplxblur=20.0 / qblur=0.5 / ip_ratio=1.40 / aq=1:1.30
Language : English
Default : Yes
Forced : No

Audio #1
ID : 2
Format : AC-3
Format/Info : Audio Coding 3
Commercial name : Dolby Digital
Codec ID : A_AC3
Duration : 2 h 43 min
Bit rate mode : Constant
Bit rate : 640 kb/s
Channel(s) : 6 channels
Channel layout : L R C LFE Ls Rs
Sampling rate : 48.0 kHz
Frame rate : 31.250 FPS (1536 SPF)
Compression mode : Lossy
Stream size : 749 MiB (14%)
Title : Thai BluRay Master
Language : Thai
Service kind : Complete Main
Default : Yes
Forced : Yes

Audio #2
ID : 3
Format : DTS
Format/Info : Digital Theater Systems
Codec ID : A_DTS
Duration : 2 h 43 min
Bit rate mode : Constant
Bit rate : 755 kb/s
Channel(s) : 6 channels
Channel layout : C L R Ls Rs LFE
Sampling rate : 48.0 kHz
Frame rate : 93.750 FPS (512 SPF)
Bit depth : 24 bits
Compression mode : Lossy
Stream size : 883 MiB (16%)
Title : English DTS-5.1
Language : English
Default : No
Forced : No

Text #1
ID : 4
Format : PGS
Codec ID : S_HDMV/PGS
Codec ID/Info : Picture based subtitle format used on BDs/HD-DVDs
Duration : 2 h 42 min
Bit rate : 19.9 kb/s
Count of elements : 3388
Stream size : 23.1 MiB (0%)
Title : Thai BluRay Master
Language : Thai
Default : Yes
Forced : Yes

Text #2
ID : 5
Format : VobSub
Codec ID : S_VOBSUB
Codec ID/Info : Picture based subtitle format used on DVDs
Duration : 2 h 42 min
Bit rate : 4 426 b/s
Count of elements : 1694
Stream size : 5.14 MiB (0%)
Title : Thai 1080p
Language : Thai
Default : No
Forced : No

Text #3
ID : 6
Format : VobSub
Codec ID : S_VOBSUB
Codec ID/Info : Picture based subtitle format used on DVDs
Duration : 2 h 42 min
Bit rate : 5 960 b/s
Count of elements : 1694
Stream size : 6.92 MiB (0%)
Title : Thai 1080p Big [Yellow]
Language : Thai
Default : No
Forced : No

Text #4
ID : 7
Format : PGS
Codec ID : S_HDMV/PGS
Codec ID/Info : Picture based subtitle format used on BDs/HD-DVDs
Duration : 2 h 39 min
Bit rate : 35.4 kb/s
Count of elements : 4296
Stream size : 40.4 MiB (1%)
Title : English PGS BluRay Master
Language : English
Default : No
Forced : No

Menu
00:00:00.000 : en:00:00:00.000
00:07:00.879 : en:00:07:00.879
00:12:06.434 : en:00:12:06.434
00:18:16.345 : en:00:18:16.345
00:27:19.263 : en:00:27:19.263
00:32:48.592 : en:00:32:48.592
00:43:55.299 : en:00:43:55.299
00:57:52.844 : en:00:57:52.844
01:04:15.602 : en:01:04:15.602
01:13:15.766 : en:01:13:15.766
01:22:38.120 : en:01:22:38.120
01:33:58.591 : en:01:33:58.591
01:41:17.363 : en:01:41:17.363
01:52:46.593 : en:01:52:46.593
01:58:39.821 : en:01:58:39.821
02:05:43.995 : en:02:05:43.995
02:14:04.203 : en:02:14:04.203
02:24:08.640 : en:02:24:08.640
02:29:19.826 : en:02:29:19.826
02:37:01.162 : en:02:37:01.162

DOWNLOAD


PART01 |||| PART02 |||| PART03 |||| PART04 |||| PART05 |||| PART06

PART01 |||| PART02 |||| PART03 |||| PART04 |||| PART05 |||| PART06

PART01 |||| PART02 |||| PART03 |||| PART04 |||| PART05 |||| PART06

PART01 |||| PART02 |||| PART03 |||| PART04 |||| PART05 |||| PART06

PART01 |||| PART02 |||| PART03 |||| PART04 |||| PART05 |||| PART06


Leave A Reply

อีเมล์ของคุณจะไม่แสดงให้เห็น Your email address will not be published.

%d bloggers like this: