[MINI Super-HQ] Ne Zha (2019) นาจา [1080p] [พากย์ไทย 2.0 + เสียงจีน DTS + เสียงอังกฤษ 5.1] [บรรยายไทย + อังกฤษ] [เสียงไทยมาสเตอร์ + ซับไทย] [PANDAFILE]

0

โหลดหนัง Ne Zha (2019) นาจา

Ne Zha zhi mo tong jiang shi (2019) 1h 50min | Animation, Action, Adventure | 26 July 2019 (China)
Director: Yu YangWriters: Yu Yang, Yunyun WeiStars: Yanting Lü, Joseph, Mo Han
Summary: Born with unique powers, a boy is recruited to fight demons and save the community that fears him.
Countries: ChinaLanguages: Mandarin, English

เรื่องย่อ Ne Zha (2019) นาจา

ภาพยนตร์เรื่อง “นาจา” (Ne Zha) เป็นสงครามของเทพเจ้าที่โชคชะตาพลิกผันให้ตกอยู่ในร่างของมารที่เขาต้องต่อสู้ ฝ่าฟันกับชะตากรรม และยืนหยัดด้วยจิตใต้สำนึกแห่งความดีจนวินาทีสุดท้ายเมื่อพลังแห่งสวรรค์และโลกได้ให้กำเนิดไข่มุกพลังวัตรที่หลอมรวมพลังมหาศาลไว้ด้วยกัน “หยวนสือเทียนจุน” เทพผู้เป็นใหญ่ที่สุดในสวรรค์จึงสกัดไข่มุกนั้นออกเป็นสองลูกลูกหนึ่งกลายเป็นไข่มุกสวรรค์ ส่วนอีกลูกเป็นโอสถปีศาจ ก่อนจะนำพวกมันไปเก็บไว้ในบัววิเศษเจ็ดสี ไข่มุกสวรรค์ถูกกำหนดให้จุติเป็นมนุษย์ที่จะมีส่วนในการก่อตั้งราชวงศ์โจว ในขณะที่โอสถปีศาจถูกลิขิตให้จุติเป็นปีศาจร้ายที่จะมาทำลายล้างโลก เพื่อป้องกันไม่ให้เหตุการณ์นี้เกิดขึ้นหยวนสือเทียนจุน จึงได้ร่ายาถาฟ้าพิโรธใส่โอสถปีศาจเพื่อให้มันถูกทำลายภายในเวลาสามปี“เทพไท่อี่” ได้รับบัญชาให้นำไข่มุกสวรรค์ไปจุติในครอบครัวของ “แม่ทัพหลี่จิ้ง” เพื่อให้กำเนิดบุตรขึ้นมาและตั้งชื่อว่า “นาจา” แต่เหตุการณ์กลับไม่เป็นเช่นนั้น เมื่อพญามังกรได้สลับไข่มุกสวรรค์กับโอสถปีศาจ นาจา จึงถือกำเนิดขึ้นมาด้วยพลังโอสถปีศาจจากลิขิตสวรรค์ที่จะต้องเกิดมาเพื่อช่วยเหลือมนุษย์กลับกลายเป็นพญามารผู้ที่จะมาก่อภัยพิบัติขึ้นซะเองนาจาจะฝ่าฟันต่อชะตากรรมที่ถูกกำหนดไว้อย่างไร และจะพบจุดจบแบบไหน ศึกแห่งชะตากรรมครั้งนี้ได้ระเบิดขึ้นแล้ว!!!

Complete name : [MINI Super-HQ]_Ne.Zha.2019.1080p.BrRip.DTS.x264.THM.One2loadup.com.mkv
Format : Matroska
Format version : Version 4
File size : 4.30 GiB
Duration : 1 h 50 min
Overall bit rate : 5 594 kb/s
Movie name : [MINI Super-HQ]_Ne.Zha.2019.1080p.BrRip.DTS.x264.THM.One2loadup.com
Encoded date : UTC 2020-05-24 02:26:18
Writing application : mkvmerge v9.8.0 (‘Kuglblids’) 64bit
Writing library : libebml v1.3.4 + libmatroska v1.4.5

Video
ID : 1
Format : AVC
Format/Info : Advanced Video Codec
Format profile : [email protected]
Format settings : CABAC / 5 Ref Frames
Format settings, CABAC : Yes
Format settings, ReFrames : 5 frames
Codec ID : V_MPEG4/ISO/AVC
Duration : 1 h 50 min
Bit rate : 3 587 kb/s
Width : 1 920 pixels
Height : 804 pixels
Display aspect ratio : 2.40:1
Frame rate mode : Constant
Frame rate : 24.000 FPS
Color space : YUV
Chroma subsampling : 4:2:0
Bit depth : 8 bits
Scan type : Progressive
Bits/(Pixel*Frame) : 0.097
Stream size : 2.76 GiB (64%)
Title : [MINI Super-HQ]_Ne.Zha.2019.1080p.BrRip.DTS.x264.THM.One2loadup.com
Language : Chinese
Default : Yes
Forced : Yes

Audio #1
ID : 2
Format : AC-3
Format/Info : Audio Coding 3
Commercial name : Dolby Digital
Codec ID : A_AC3
Duration : 1 h 50 min
Bit rate mode : Constant
Bit rate : 384 kb/s
Channel(s) : 2 channels
Channel layout : L R
Sampling rate : 48.0 kHz
Frame rate : 31.250 FPS (1536 SPF)
Bit depth : 16 bits
Compression mode : Lossy
Stream size : 302 MiB (7%)
Title : Thai Master
Language : Thai
Service kind : Complete Main
Default : Yes
Forced : Yes

Audio #2
ID : 3
Format : DTS
Format/Info : Digital Theater Systems
Codec ID : A_DTS
Duration : 1 h 50 min
Bit rate mode : Constant
Bit rate : 755 kb/s
Channel(s) : 6 channels
Channel layout : C L R Ls Rs LFE
Sampling rate : 48.0 kHz
Frame rate : 93.750 FPS (512 SPF)
Bit depth : 24 bits
Compression mode : Lossy
Stream size : 594 MiB (13%)
Title : Chinese DTS
Language : Chinese
Default : No
Forced : No

Audio #3
ID : 4
Format : AC-3
Format/Info : Audio Coding 3
Commercial name : Dolby Digital
Codec ID : A_AC3
Duration : 1 h 50 min
Bit rate mode : Constant
Bit rate : 640 kb/s
Channel(s) : 6 channels
Channel layout : L R C LFE Ls Rs
Sampling rate : 48.0 kHz
Frame rate : 31.250 FPS (1536 SPF)
Bit depth : 16 bits
Compression mode : Lossy
Stream size : 504 MiB (11%)
Title : English 5.1-EX
Language : English
Service kind : Complete Main
Default : No
Forced : No

Text #1
ID : 5
Format : VobSub
Codec ID : S_VOBSUB
Codec ID/Info : Picture based subtitle format used on DVDs
Duration : 1 h 49 min
Bit rate : 4 157 b/s
Count of elements : 1382
Stream size : 3.25 MiB (0%)
Title : Thai 720p
Language : Thai
Default : No
Forced : No

Text #2
ID : 6
Format : VobSub
Codec ID : S_VOBSUB
Codec ID/Info : Picture based subtitle format used on DVDs
Duration : 1 h 49 min
Bit rate : 7 586 b/s
Count of elements : 1382
Stream size : 5.94 MiB (0%)
Title : Thai 1080p
Language : Thai
Default : Yes
Forced : Yes

Text #3
ID : 7
Format : VobSub
Codec ID : S_VOBSUB
Codec ID/Info : Picture based subtitle format used on DVDs
Duration : 1 h 49 min
Bit rate : 7 578 b/s
Count of elements : 1382
Stream size : 5.93 MiB (0%)
Title : Thai 1080p Yellow
Language : Thai
Default : No
Forced : No

Text #4
ID : 8
Format : VobSub
Codec ID : S_VOBSUB
Codec ID/Info : Picture based subtitle format used on DVDs
Duration : 1 h 49 min
Bit rate : 10.4 kb/s
Count of elements : 1382
Stream size : 8.18 MiB (0%)
Title : Thai 1080p Big
Language : Thai
Default : No
Forced : No

Text #5
ID : 9
Format : VobSub
Codec ID : S_VOBSUB
Codec ID/Info : Picture based subtitle format used on DVDs
Duration : 1 h 49 min
Bit rate : 7 181 b/s
Count of elements : 1382
Stream size : 5.62 MiB (0%)
Title : Thai 1080p Out
Language : Thai
Default : No
Forced : No

Text #6
ID : 10
Format : PGS
Codec ID : S_HDMV/PGS
Codec ID/Info : Picture based subtitle format used on BDs/HD-DVDs
Duration : 1 h 49 min
Bit rate : 32.7 kb/s
Count of elements : 2764
Stream size : 25.6 MiB (1%)
Title : Thai 1080p PGS
Language : Thai
Default : No
Forced : No

Text #7
ID : 11
Format : PGS
Codec ID : S_HDMV/PGS
Codec ID/Info : Picture based subtitle format used on BDs/HD-DVDs
Duration : 1 h 49 min
Bit rate : 32.8 kb/s
Count of elements : 2764
Stream size : 25.7 MiB (1%)
Title : Thai 1080p Yellow PGS
Language : Thai
Default : No
Forced : No

Text #8
ID : 12
Format : PGS
Codec ID : S_HDMV/PGS
Codec ID/Info : Picture based subtitle format used on BDs/HD-DVDs
Duration : 1 h 49 min
Bit rate : 30.9 kb/s
Count of elements : 2764
Stream size : 24.2 MiB (1%)
Title : Thai 1080p Out PGS
Language : Thai
Default : No
Forced : No

Text #9
ID : 13
Format : PGS
Codec ID : S_HDMV/PGS
Codec ID/Info : Picture based subtitle format used on BDs/HD-DVDs
Duration : 1 h 47 min
Bit rate : 31.0 kb/s
Count of elements : 2451
Stream size : 23.9 MiB (1%)
Title : English
Language : English
Default : No
Forced : No

Text #10
ID : 14
Format : PGS
Codec ID : S_HDMV/PGS
Codec ID/Info : Picture based subtitle format used on BDs/HD-DVDs
Duration : 1 h 47 min
Bit rate : 41.3 kb/s
Count of elements : 2940
Stream size : 31.9 MiB (1%)
Title : English (SDH)
Language : English
Default : No
Forced : No

Text #11
ID : 15
Format : PGS
Codec ID : S_HDMV/PGS
Codec ID/Info : Picture based subtitle format used on BDs/HD-DVDs
Duration : 1 h 42 min
Bit rate : 334 b/s
Count of elements : 28
Stream size : 252 KiB (0%)
Title : English (Foreign)
Language : English
Default : No
Forced : Yes

Text #12
ID : 16
Format : PGS
Codec ID : S_HDMV/PGS
Codec ID/Info : Picture based subtitle format used on BDs/HD-DVDs
Duration : 1 h 47 min
Bit rate : 22.3 kb/s
Count of elements : 2441
Stream size : 17.2 MiB (0%)
Title : Chinese (Mandarin Simplified)
Language : Chinese
Default : No
Forced : No

Menu
00:00:00.000 : en:Chapter 1
00:05:56.458 : en:Chapter 2
00:15:39.958 : en:Chapter 3
00:25:46.125 : en:Chapter 4
00:35:42.875 : en:Chapter 5
00:41:50.208 : en:Chapter 6
00:52:11.833 : en:Chapter 7
01:00:58.917 : en:Chapter 8
01:08:17.250 : en:Chapter 9
01:16:35.167 : en:Chapter 10
01:24:05.667 : en:Chapter 11
01:43:22.500 : en:Chapter 12

DOWNLOAD


PART01 |||| PART02 |||| PART03 |||| PART04 |||| PART05

PART01 |||| PART02 |||| PART03 |||| PART04 |||| PART05

PART01 |||| PART02 |||| PART03 |||| PART04 |||| PART05

PART01 |||| PART02 |||| PART03 |||| PART04 |||| PART05

PART01 |||| PART02 |||| PART03 |||| PART04 |||| PART05


Disable Comments
%d bloggers like this: