[MINI Super-HQ] Mulan (2020) มู่หลาน [1080p] [พากย์ไทย 2.0 + เสียงอังกฤษ DTS] [บรรยายไทย + อังกฤษ] [เสียงไทยมาสเตอร์ + ซับไทย] [PANDAFILE]

0

โหลดหนัง Mulan (2020) มู่หลาน

Mulan (2020) 1h 55min | Action, Adventure, Drama | 4 September 2020 (USA) Summary: A young Chinese maiden disguises herself as a male warrior in order to save her father.
Countries: USA, Canada, Hong KongLanguages: English

เรื่องย่อ Mulan (2020) มู่หลาน

เรื่องราวของมู่หลาน หญิงสาวผู้เป็นความหวังของสกุลฮัว ที่หมายมั่นว่าเธอจะได้สามีที่ดีเพื่อเป็นเกียรติศักดิ์ศรีแก่ตระกูลแต่แล้วมู่หลานกลับไม่เป็นที่ถูกใจของแม่สื่อทำให้เธอและครอบครัวต้องอับอาย ในขณะเดียวกันศัตรูได้รุกรานแผ่นดินจีนองค์ฮ่องเต้ได้ประกาศให้ตัวแทนจากทุกครอบครัวเข้าร่วมเป็นทหารแต่ สกุลฮัว มีเพียงพ่อผู้ชราและมีอาการป่วยทำให้มู่หลานต้องปลอมตัวเป็นผู้ชายเข้าร่วมกองทัพแทนพ่อกลายเป็นจุดเริ่มต้นของเรื่องราวอันยิ่งใหญ่
และได้รับการกล่าวขานเป็นตำนานแห่งวีรสตรีของแผ่นดินมังกร!

หนังสร้างจาก ฉบับแอนิเมชั่นดิสนีย์ที่ประสบความสำเร็จอย่างมาก โดยสามารถกวาดรายได้ 304 ล้านดอลล่าร์สหรัฐและได้รับการเสนอชื่อเข้าชิงออสก้าร์และลูกโลกทองคำในสาขา Best Original Song ซึ่งฉบับ Live Acion นี้ ได้ หลิวอี้เฟย รับบท มู่หลาน, Donnie Yen มาเป็นท่านแม่ทัพ,Jet Li เป็นองค์มหาจักรพรรดิ, Jason Scott Lee, Li Gong, Yoson An ที่คาดว่าเขาจะกลับมารับบทเป็นตัวเอกฝั่งชายของเรื่องด้วย!!!

Complete name : [MINI Super-HQ]_Mulan.2020.1080p.BrRip.DTS.x264.THM.One2loadup.com.mkv
Format : Matroska
Format version : Version 4
File size : 3.83 GiB
Duration : 1 h 55 min
Overall bit rate : 4 758 kb/s
Movie name : [MINI Super-HQ]_Mulan.2020.1080p.BrRip.DTS.x264.THM.One2loadup.com
Encoded date : UTC 2010-02-22 21:41:31
Writing application : mkvmerge v5.9.0 (‘On The Loose’) built on Dec 9 2012 15:37:01
Writing library : libebml v1.3.0 + libmatroska v1.4.0

Video
ID : 1
Format : AVC
Format/Info : Advanced Video Codec
Format profile : [email protected]
Format settings : CABAC / 4 Ref Frames
Format settings, CABAC : Yes
Format settings, ReFrames : 4 frames
Codec ID : V_MPEG4/ISO/AVC
Duration : 1 h 55 min
Bit rate : 3 500 kb/s
Width : 1 920 pixels
Height : 804 pixels
Display aspect ratio : 2.40:1
Frame rate mode : Constant
Frame rate : 23.976 (24000/1001) FPS
Color space : YUV
Chroma subsampling : 4:2:0
Bit depth : 8 bits
Scan type : Progressive
Bits/(Pixel*Frame) : 0.095
Stream size : 2.84 GiB (74%)
Title : [MINI Super-HQ]_Mulan.2020.1080p.BrRip.DTS.x264.THM.One2loadup.com
Writing library : x264 core 146 r2538 121396c
Encoding settings : cabac=1 / ref=5 / deblock=1:-3:-3 / analyse=0x3:0x133 / me=tesa / subme=11 / psy=1 / psy_rd=1.00:0.15 / mixed_ref=1 / me_range=48 / chroma_me=1 / trellis=2 / 8x8dct=1 / cqm=0 / deadzone=21,11 / fast_pskip=1 / chroma_qp_offset=-3 / threads=54 / lookahead_threads=4 / sliced_threads=0 / nr=0 / decimate=1 / interlaced=0 / bluray_compat=1 / constrained_intra=0 / bframes=3 / b_pyramid=1 / b_adapt=2 / b_bias=0 / direct=3 / weightb=1 / open_gop=0 / weightp=1 / keyint=250 / keyint_min=1 / scenecut=40 / intra_refresh=0 / rc_lookahead=60 / rc=2pass / mbtree=1 / bitrate=3500 / ratetol=1.0 / qcomp=0.60 / qpmin=0 / qpmax=69 / qpstep=4 / cplxblur=20.0 / qblur=0.5 / ip_ratio=1.40 / aq=1:1.30
Language : English
Default : Yes
Forced : No

Audio #1
ID : 2
Format : AC-3
Format/Info : Audio Coding 3
Commercial name : Dolby Digital
Codec ID : A_AC3
Duration : 1 h 55 min
Bit rate mode : Constant
Bit rate : 384 kb/s
Channel(s) : 2 channels
Channel layout : L R
Sampling rate : 48.0 kHz
Frame rate : 31.250 FPS (1536 SPF)
Bit depth : 16 bits
Compression mode : Lossy
Stream size : 316 MiB (8%)
Title : Thai Master
Language : Thai
Service kind : Complete Main
Default : Yes
Forced : Yes

Audio #2
ID : 3
Format : DTS
Format/Info : Digital Theater Systems
Codec ID : A_DTS
Duration : 1 h 55 min
Bit rate mode : Constant
Bit rate : 755 kb/s
Channel(s) : 6 channels
Channel layout : C L R Ls Rs LFE
Sampling rate : 48.0 kHz
Frame rate : 93.750 FPS (512 SPF)
Bit depth : 24 bits
Compression mode : Lossy
Stream size : 622 MiB (16%)
Title : English DTS
Language : English
Default : No
Forced : No

Text #1
ID : 4
Format : VobSub
Codec ID : S_VOBSUB
Codec ID/Info : Picture based subtitle format used on DVDs
Title : Thai 720p
Language : Thai
Default : No
Forced : No

Text #2
ID : 5
Format : VobSub
Codec ID : S_VOBSUB
Codec ID/Info : Picture based subtitle format used on DVDs
Title : Thai 1080p
Language : Thai
Default : Yes
Forced : Yes

Text #3
ID : 6
Format : VobSub
Codec ID : S_VOBSUB
Codec ID/Info : Picture based subtitle format used on DVDs
Title : Thai 1080p Yellow
Language : Thai
Default : No
Forced : No

Text #4
ID : 7
Format : VobSub
Codec ID : S_VOBSUB
Codec ID/Info : Picture based subtitle format used on DVDs
Title : Thai 1080p Out
Language : Thai
Default : No
Forced : No

Text #5
ID : 8
Format : VobSub
Codec ID : S_VOBSUB
Codec ID/Info : Picture based subtitle format used on DVDs
Title : Thai 1080p BIG
Language : Thai
Default : No
Forced : No

Text #6
ID : 9
Format : VobSub
Codec ID : S_VOBSUB
Codec ID/Info : Picture based subtitle format used on DVDs
Title : Thai 1080p Out [BIG]
Language : Thai
Default : No
Forced : No

Text #7
ID : 10
Format : PGS
Codec ID : S_HDMV/PGS
Codec ID/Info : Picture based subtitle format used on BDs/HD-DVDs
Title : Thai PGS
Language : Thai
Default : No
Forced : No

Text #8
ID : 11
Format : PGS
Codec ID : S_HDMV/PGS
Codec ID/Info : Picture based subtitle format used on BDs/HD-DVDs
Title : Thai PGS Yellow
Language : Thai
Default : No
Forced : No

Text #9
ID : 12
Format : PGS
Codec ID : S_HDMV/PGS
Codec ID/Info : Picture based subtitle format used on BDs/HD-DVDs
Title : Thai PGS Out
Language : Thai
Default : No
Forced : No

Text #10
ID : 13
Format : PGS
Codec ID : S_HDMV/PGS
Codec ID/Info : Picture based subtitle format used on BDs/HD-DVDs
Title : English
Language : English
Default : No
Forced : No

Menu
00:00:00.000 : en:1
00:04:43.450 : en:2
00:06:25.802 : en:3
00:09:28.484 : en:4
00:13:26.555 : en:5
00:20:50.916 : en:6
00:26:33.008 : en:7
00:29:03.324 : en:8
00:36:48.163 : en:9
00:41:41.039 : en:10
00:50:44.999 : en:11
00:57:18.308 : en:12
01:01:12.666 : en:13
01:11:22.149 : en:14
01:16:34.252 : en:15
01:22:10.879 : en:16
01:29:58.388 : en:17
01:34:59.147 : en:18
01:38:51.711 : en:19
01:44:39.725 : en:20

DOWNLOAD


PART01 |||| PART02 |||| PART03 |||| PART04

PART01 |||| PART02 |||| PART03 |||| PART04

PART01 |||| PART02 |||| PART03 |||| PART04

PART01 |||| PART02 |||| PART03 |||| PART04

PART01 |||| PART02 |||| PART03 |||| PART04



แจ้งหนังเสีย หรือโหลดไม่ได้ ทั้งลิ้งฟรีและ vip สามารถกดที่รูปด้านบนนี้ได้เลย

: Disable Comments
%d bloggers like this: