[MINI Super-HQ] Morbius (2022) มอร์เบียส [1080p] [พากย์ไทย 5.1 + เสียงอังกฤษ 5.1] [บรรยายไทย + อังกฤษ] [เสียงไทย + ซับไทย] [DOSYAUPLOAD]

0

โหลดหนัง Morbius (2022) มอร์เบียส

Morbius Action, Adventure, Horror, Sci-Fi, Thriller | April 1, 2022 (United States) Summary: Biochemist Michael Morbius tries to cure himself of a rare blood disease, but he inadvertently infects himself with a form of vampirism instead.
Countries: United StatesLanguages: English, Spanish, Russian

เรื่องย่อ Morbius (2022) มอร์เบียส

เรื่องราวของคุณหมอมากฝีมือ ไมเคิล มอร์เบียส (จาเรด เลโต) เขากำลังป่วยเป็นโรคเกี่ยวกับเลือดที่ยังไม่มีทางรักษาเขาจึงพยายามคิดค้นหาวิธีการรักษาโรคของตัวเอง รวมถึงเป็นโอกาสที่จะได้รักษาคนอื่นที่เป็นโรคเดียวกับเขาด้วย ดร.มอร์เบียสได้ใช้ตัวเองทดลองกับสารที่สกัดจากค้างคาวผลที่เกิดขึ้นคือเขามีพลังเหนือมนุษย์มีความสามารถ เหมือนค้างคาวขณะเดียวกันก็เต็มไปด้วยความกระหายเลือดที่ยากจะควบคุม!!!

Complete name : [MINI Super-HQ]_Morbius.2022.1080p.WEB-DL.EAC3.x264.One2loadup.com.mkv
Format : Matroska
Format version : Version 4
File size : 4.52 GiB
Duration : 1 h 44 min
Overall bit rate : 6 214 kb/s
Movie name : [MINI Super-HQ]_Morbius.2022.1080p.WEB-DL.EAC3.x264.One2loadup.com
Encoded date : UTC 2022-05-21 15:39:25
Writing application : mkvmerge v67.0.0 (‘Under Stars’) 64-bit
Writing library : libebml v1.4.2 + libmatroska v1.6.4

Video
ID : 1
Format : AVC
Format/Info : Advanced Video Codec
Format profile : [email protected]
Format settings : CABAC / 3 Ref Frames
Format settings, CABAC : Yes
Format settings, Reference : 3 frames
Codec ID : V_MPEG4/ISO/AVC
Duration : 1 h 44 min
Bit rate : 5 044 kb/s
Width : 1 920 pixels
Height : 800 pixels
Display aspect ratio : 2.40:1
Frame rate mode : Constant
Frame rate : 23.976 (24000/1001) FPS
Color space : YUV
Chroma subsampling : 4:2:0
Bit depth : 8 bits
Scan type : Progressive
Bits/(Pixel*Frame) : 0.137
Stream size : 3.67 GiB (81%)
Title : [MINI Super-HQ]_Morbius.2022.1080p.WEB-DL.EAC3.x264.One2loadup.com
Language : English
Default : Yes
Forced : No
Color range : Limited
Color primaries : BT.709
Transfer characteristics : BT.709
Matrix coefficients : BT.709

Audio #1
ID : 2
Format : E-AC-3 JOC
Format/Info : Enhanced AC-3 with Joint Object Coding
Commercial name : Dolby Digital Plus with Dolby Atmos
Codec ID : A_EAC3
Duration : 1 h 44 min
Bit rate mode : Constant
Bit rate : 768 kb/s
Channel(s) : 6 channels
Channel layout : L R C LFE Ls Rs
Sampling rate : 48.0 kHz
Frame rate : 31.250 FPS (1536 SPF)
Compression mode : Lossy
Stream size : 572 MiB (12%)
Title : E-AC3 Atmos English
Language : English
Service kind : Complete Main
Default : No
Forced : No
Complexity index : 16
Number of dynamic objects : 15
Bed channel count : 1 channel
Bed channel configuration : LFE

Audio #2
ID : 3
Format : E-AC-3
Format/Info : Enhanced AC-3
Commercial name : Dolby Digital Plus
Codec ID : A_EAC3
Duration : 1 h 44 min
Bit rate mode : Constant
Bit rate : 384 kb/s
Channel(s) : 6 channels
Channel layout : L R C LFE Ls Rs
Sampling rate : 48.0 kHz
Frame rate : 31.250 FPS (1536 SPF)
Compression mode : Lossy
Stream size : 286 MiB (6%)
Title : Thai (DD+ 5.1 – Google Play)
Language : Thai
Service kind : Complete Main
Default : Yes
Forced : No

Text #1
ID : 4
Format : UTF-8
Codec ID : S_TEXT/UTF8
Codec ID/Info : UTF-8 Plain Text
Duration : 1 h 34 min
Bit rate : 42 b/s
Count of elements : 1025
Stream size : 29.1 KiB (0%)
Title : Sub English SRT
Language : English
Default : No
Forced : No

Text #2
ID : 5
Format : VobSub
Muxing mode : zlib
Codec ID : S_VOBSUB
Codec ID/Info : Picture based subtitle format used on DVDs
Duration : 1 h 42 min
Bit rate : 8 222 b/s
Count of elements : 937
Stream size : 6.05 MiB (0%)
Title : Sub Thai 1080p
Language : Thai
Default : No
Forced : No

Text #3
ID : 6
Format : UTF-8
Codec ID : S_TEXT/UTF8
Codec ID/Info : UTF-8 Plain Text
Duration : 1 h 42 min
Bit rate : 83 b/s
Count of elements : 937
Stream size : 63.1 KiB (0%)
Title : Sub Thai SRT
Language : Thai
Default : No
Forced : No

Text #4
ID : 7
Format : PGS
Muxing mode : zlib
Codec ID : S_HDMV/PGS
Codec ID/Info : Picture based subtitle format used on BDs/HD-DVDs
Duration : 1 h 42 min
Bit rate : 24.7 kb/s
Count of elements : 1874
Stream size : 18.2 MiB (0%)
Title : Sub Thai PGS
Language : Thai
Default : Yes
Forced : No

DOWNLOAD


PART01 |||| PART02 |||| PART03 |||| PART04 |||| PART05

PART01 |||| PART02 |||| PART03 |||| PART04 |||| PART05

PART01 |||| PART02 |||| PART03 |||| PART04 |||| PART05

PART01 |||| PART02 |||| PART03 |||| PART04 |||| PART05

PART01 |||| PART02 |||| PART03 |||| PART04 |||| PART05


Leave A Reply

อีเมล์ของคุณจะไม่แสดงให้เห็น Your email address will not be published.

%d bloggers like this: