[MINI Super-HQ] Monster Hunter (2020) มอนสเตอร์ ฮันเตอร์ [1080p] [พากย์ไทย 5.1 + เสียงอังกฤษ DTS] [บรรยายไทย + อังกฤษ] [เสียงไทย + ซับไทย] [DOSYAUPLOAD]

0

โหลดหนัง Monster Hunter (2020) มอนสเตอร์ ฮันเตอร์

Monster Hunter (2020) 103min | Action, Adventure, Fantasy | 18 December 2020 (USA) Summary: When Lt. Artemis and her loyal soldiers are transported to a new world, they engage in a desperate battle for survival against enormous enemies with incredible powers. Feature film based on the video game by Capcom.
Countries: Germany, USA, Japan, ChinaLanguages: English

เรื่องย่อ Monster Hunter (2020) มอนสเตอร์ ฮันเตอร์

เบื้องหลังโลกของเรา ยังมีอีกโลกหนึ่งลกของอสุรกายที่อันตรายและทรงพลังครองอาณาเขตของพวกมันด้วยความดุดันพายุทะเลทรายที่คาดไม่ถึงได้พา ร้อยโทอาร์เทมิส (มิลล่า โจโววิช) และทีมของเธอ (ทิป “ที.ไอ.” แฮร์ริส, มีแกน กู้ด และ ดิเอโก้ โบนิต้า) ไปสู่โลกใหม่เหล่าทหารต้องตกตะลึงเมื่อได้พบว่าสภาพแวดล้อมที่โหด เหี้ยมนี้เป็นที่อยู่ของอสุรกายยักษ์ที่น่าสะพรึงกลัว และปืนก็ทาอะไรพวกมันไม่ได้การต่อสู้อย่างสิ้นหวังเพื่อเอาชีวิตรอดทาให้พวกเขาได้พบกับฮันเตอร์ผู้ลึกลับ (โทนี่ จา) นักล่าผู้ซึ่งมีความสามารถอยู่เหนือฝูงอสุรกายที่ทรงพลังอาร์เทมิส และ ฮันเตอร์ ค่อย ๆ เกิดความไว้วางใจซึ่งกันและกัน พร้อมลุยและสู้กับอันตรายที่ยิ่งใหญ่เป็นภัยคุกคามต่อโลกของพวกเขา!!!

Complete name : [MINI Super-HQ]_Monster.Hunter.2020.1080p.BrRip.DTS.x264.One2loadup.com.mkv
Format : Matroska
Format version : Version 4
File size : 3.89 GiB
Duration : 1 h 43 min
Overall bit rate : 5 394 kb/s
Movie name : [MINI Super-HQ]_Monster.Hunter.2020.1080p.BrRip.DTS.x264.One2loadup.com
Encoded date : UTC 2010-02-22 21:41:31
Writing application : mkvmerge v5.9.0 (‘On The Loose’) built on Dec 9 2012 15:37:01
Writing library : libebml v1.3.0 + libmatroska v1.4.0

Video
ID : 1
Format : AVC
Format/Info : Advanced Video Codec
Format profile : [email protected]
Format settings : CABAC / 4 Ref Frames
Format settings, CABAC : Yes
Format settings, ReFrames : 4 frames
Codec ID : V_MPEG4/ISO/AVC
Duration : 1 h 43 min
Bit rate : 4 142 kb/s
Width : 1 920 pixels
Height : 804 pixels
Display aspect ratio : 2.40:1
Frame rate mode : Constant
Frame rate : 23.976 (24000/1001) FPS
Color space : YUV
Chroma subsampling : 4:2:0
Bit depth : 8 bits
Scan type : Progressive
Bits/(Pixel*Frame) : 0.112
Stream size : 2.94 GiB (76%)
Title : [MINI Super-HQ]_Monster.Hunter.2020.1080p.BrRip.DTS.x264.One2loadup.com
Writing library : x264 core 130 r2273 b3065e6
Encoding settings : cabac=1 / ref=3 / deblock=1:0:0 / analyse=0x3:0x113 / me=umh / subme=11 / psy=1 / psy_rd=1.00:0.00 / mixed_ref=1 / me_range=48 / chroma_me=1 / trellis=2 / 8x8dct=1 / cqm=0 / deadzone=21,11 / fast_pskip=1 / chroma_qp_offset=-2 / threads=24 / lookahead_threads=2 / sliced_threads=0 / nr=0 / decimate=1 / interlaced=0 / bluray_compat=0 / constrained_intra=0 / bframes=3 / b_pyramid=2 / b_adapt=1 / b_bias=0 / direct=1 / weightb=1 / open_gop=0 / weightp=2 / keyint=240 / keyint_min=24 / scenecut=40 / intra_refresh=0 / rc_lookahead=40 / rc=2pass / mbtree=1 / bitrate=4142 / ratetol=1.0 / qcomp=0.60 / qpmin=0 / qpmax=69 / qpstep=4 / cplxblur=20.0 / qblur=0.5 / ip_ratio=1.40 / aq=1:1.00
Language : English
Default : Yes
Forced : No
Color range : Limited
Color primaries : BT.709
Transfer characteristics : BT.709
Matrix coefficients : BT.709

Audio #1
ID : 2
Format : AC-3
Format/Info : Audio Coding 3
Commercial name : Dolby Digital
Codec ID : A_AC3
Duration : 1 h 43 min
Bit rate mode : Constant
Bit rate : 448 kb/s
Channel(s) : 6 channels
Channel layout : L R C LFE Ls Rs
Sampling rate : 48.0 kHz
Frame rate : 31.250 FPS (1536 SPF)
Bit depth : 16 bits
Compression mode : Lossy
Stream size : 330 MiB (8%)
Title : Thai Master 5.1
Language : Thai
Service kind : Complete Main
Default : Yes
Forced : Yes

Audio #2
ID : 3
Format : DTS
Format/Info : Digital Theater Systems
Codec ID : A_DTS
Duration : 1 h 43 min
Bit rate mode : Constant
Bit rate : 755 kb/s
Channel(s) : 6 channels
Channel layout : C L R Ls Rs LFE
Sampling rate : 48.0 kHz
Frame rate : 93.750 FPS (512 SPF)
Bit depth : 24 bits
Compression mode : Lossy
Stream size : 557 MiB (14%)
Title : English DTS
Language : English
Default : No
Forced : No

Text #1
ID : 4
Format : VobSub
Codec ID : S_VOBSUB
Codec ID/Info : Picture based subtitle format used on DVDs
Title : Thai 720p
Language : Thai
Default : No
Forced : No

Text #2
ID : 5
Format : VobSub
Codec ID : S_VOBSUB
Codec ID/Info : Picture based subtitle format used on DVDs
Title : Thai 1080p
Language : Thai
Default : Yes
Forced : Yes

Text #3
ID : 6
Format : VobSub
Codec ID : S_VOBSUB
Codec ID/Info : Picture based subtitle format used on DVDs
Title : Thai 1080p BIG
Language : Thai
Default : No
Forced : No

Text #4
ID : 7
Format : VobSub
Codec ID : S_VOBSUB
Codec ID/Info : Picture based subtitle format used on DVDs
Title : Thai 1080p Out
Language : Thai
Default : No
Forced : No

Text #5
ID : 8
Format : VobSub
Codec ID : S_VOBSUB
Codec ID/Info : Picture based subtitle format used on DVDs
Title : Thai 1080p Out [BIG]
Language : Thai
Default : No
Forced : No

Text #6
ID : 9
Format : PGS
Codec ID : S_HDMV/PGS
Codec ID/Info : Picture based subtitle format used on BDs/HD-DVDs
Title : Thai PGS
Language : Thai
Default : No
Forced : No

Text #7
ID : 10
Format : PGS
Codec ID : S_HDMV/PGS
Codec ID/Info : Picture based subtitle format used on BDs/HD-DVDs
Title : Thai PGS Out
Language : Thai
Default : No
Forced : No

Text #8
ID : 11
Format : PGS
Codec ID : S_HDMV/PGS
Codec ID/Info : Picture based subtitle format used on BDs/HD-DVDs
Title : English
Language : English
Default : No
Forced : No

Menu
00:00:00.000 : en:Chapter 1
00:04:59.549 : en:Chapter 2
00:10:28.211 : en:Chapter 3
00:15:26.342 : en:Chapter 4
00:21:12.938 : en:Chapter 5
00:24:53.617 : en:Chapter 6
00:31:53.328 : en:Chapter 7
00:35:58.698 : en:Chapter 8
00:41:10.301 : en:Chapter 9
00:48:05.132 : en:Chapter 10
00:54:10.122 : en:Chapter 11
01:01:36.109 : en:Chapter 12
01:06:18.516 : en:Chapter 13
01:13:21.772 : en:Chapter 14
01:23:01.727 : en:Chapter 15
01:31:21.601 : en:Chapter 16

DOWNLOAD


PART01 |||| PART02 |||| PART03 |||| PART04

PART01 |||| PART02 |||| PART03 |||| PART04

PART01 |||| PART02 |||| PART03 |||| PART04

PART01 |||| PART02 |||| PART03 |||| PART04

PART01 |||| PART02 |||| PART03 |||| PART04


Leave A Reply

Your email address will not be published.

%d bloggers like this: