[MINI Super-HQ] Misha and the Wolves (2021) มิชาและหมาป่า [1080p] [NETFLIX] [พากย์ไทย 5.1 + เสียงอังกฤษ 5.1] [บรรยายไทย + อังกฤษ] [เสียงไทย + ซับไทย] [USERLOAD]

0

โหลดหนัง Misha and the Wolves (2021) มิชาและหมาป่า

Misha and the Wolves (2021) 90min | Documentary, Drama | August 11, 2021 (United States) Summary: Misha and the Wolves is the dramatic tale of a woman whose holocaust memoir took the world by storm, but a fallout with her publisher - who turned detective - revealed an audacious deception... Read all
Countries: Belgium, United Kingdom

เรื่องย่อ Misha and the Wolves (2021) มิชาและหมาป่า

เธอเล่าว่าหลบหนีจากเหตุฆ่าล้างเผ่าพันธุ์ชาวยิวและใช้ชีวิตอยู่กับบรรดาหมาป่าตอนเป็นเด็กเรื่องราวสุดเหลือเชื่อนี้ปลุกกระแสความสงสาร… ก่อนจะนำไปสู่ความเคลือบแคลง

Complete name : [MINI Super-HQ]_Misha.and.the.Wolves.2021.1080p.NF.WEB-DL.EAC3.x264.One2loadup.com.mkv
Format : Matroska
Format version : Version 4
File size : 4.27 GiB
Duration : 1 h 29 min
Overall bit rate : 6 808 kb/s
Movie name : [MINI Super-HQ]_Misha.and.the.Wolves.2021.1080p.NF.WEB-DL.EAC3.x264.One2loadup.com
Encoded date : UTC 2021-08-17 11:41:49
Writing application : mkvmerge v60.0.0 (‘Are We Copies?’) 64-bit
Writing library : libebml v1.4.2 + libmatroska v1.6.4

Video
ID : 1
Format : AVC
Format/Info : Advanced Video Codec
Format profile : [email protected]
Format settings : CABAC / 3 Ref Frames
Format settings, CABAC : Yes
Format settings, Reference : 3 frames
Codec ID : V_MPEG4/ISO/AVC
Duration : 1 h 29 min
Bit rate : 5 448 kb/s
Width : 1 920 pixels
Height : 804 pixels
Display aspect ratio : 2.40:1
Frame rate mode : Constant
Frame rate : 25.000 FPS
Color space : YUV
Chroma subsampling : 4:2:0
Bit depth : 8 bits
Scan type : Progressive
Bits/(Pixel*Frame) : 0.141
Stream size : 3.42 GiB (80%)
Title : [MINI Super-HQ]_Misha.and.the.Wolves.2021.1080p.NF.WEB-DL.EAC3.x264.One2loadup.com
Language : English
Default : Yes
Forced : No

Audio #1
ID : 2
Format : E-AC-3
Format/Info : Enhanced AC-3
Commercial name : Dolby Digital Plus
Codec ID : A_EAC3
Duration : 1 h 29 min
Bit rate mode : Constant
Bit rate : 640 kb/s
Channel(s) : 6 channels
Channel layout : L R C LFE Ls Rs
Sampling rate : 48.0 kHz
Frame rate : 31.250 FPS (1536 SPF)
Compression mode : Lossy
Stream size : 411 MiB (9%)
Title : E-AC3 English
Language : English
Service kind : Complete Main
Default : Yes
Forced : No

Audio #2
ID : 3
Format : E-AC-3
Format/Info : Enhanced AC-3
Commercial name : Dolby Digital Plus
Codec ID : A_EAC3
Duration : 1 h 29 min
Bit rate mode : Constant
Bit rate : 640 kb/s
Channel(s) : 6 channels
Channel layout : L R C LFE Ls Rs
Sampling rate : 48.0 kHz
Frame rate : 31.250 FPS (1536 SPF)
Compression mode : Lossy
Stream size : 411 MiB (9%)
Title : E-AC3 Thai
Language : Thai
Service kind : Complete Main
Default : Yes
Forced : No

Text #1
ID : 4
Format : VobSub
Muxing mode : zlib
Codec ID : S_VOBSUB
Codec ID/Info : Picture based subtitle format used on DVDs
Duration : 1 h 28 min
Bit rate : 14.7 kb/s
Count of elements : 1143
Stream size : 9.33 MiB (0%)
Title : Sub Thai 1080p
Language : Thai
Default : No
Forced : No

Text #2
ID : 5
Format : UTF-8
Codec ID : S_TEXT/UTF8
Codec ID/Info : UTF-8 Plain Text
Duration : 1 h 28 min
Bit rate : 154 b/s
Count of elements : 1143
Stream size : 100 KiB (0%)
Title : Sub Thai SRT
Language : Thai
Default : No
Forced : No

Text #3
ID : 6
Format : PGS
Muxing mode : zlib
Codec ID : S_HDMV/PGS
Codec ID/Info : Picture based subtitle format used on BDs/HD-DVDs
Duration : 1 h 28 min
Bit rate : 41.6 kb/s
Count of elements : 2286
Stream size : 26.3 MiB (1%)
Title : Sub Thai PGS
Language : Thai
Default : No
Forced : No

Text #4
ID : 7
Format : PGS
Muxing mode : zlib
Codec ID : S_HDMV/PGS
Codec ID/Info : Picture based subtitle format used on BDs/HD-DVDs
Duration : 1 h 28 min
Bit rate : 72.5 kb/s
Count of elements : 2286
Stream size : 45.9 MiB (1%)
Title : Sub Thai PGS NETFLIX
Language : Thai
Default : Yes
Forced : No

Text #5
ID : 8
Format : UTF-8
Codec ID : S_TEXT/UTF8
Codec ID/Info : UTF-8 Plain Text
Duration : 1 h 24 min
Bit rate : 75 b/s
Count of elements : 1282
Stream size : 46.9 KiB (0%)
Title : Sub English SRT
Language : English
Default : No
Forced : No

DOWNLOAD


PART01 |||| PART02 |||| PART03 |||| PART04 |||| PART05

PART01 |||| PART02 |||| PART03 |||| PART04 |||| PART05

PART01 |||| PART02 |||| PART03 |||| PART04 |||| PART05

PART01 |||| PART02 |||| PART03 |||| PART04 |||| PART05

PART01 |||| PART02 |||| PART03 |||| PART04 |||| PART05


Leave A Reply

อีเมล์ของคุณจะไม่แสดงให้เห็น Your email address will not be published.

%d bloggers like this: