[MINI Super-HQ] Minari (2020) มินาริ [1080p] [พากย์เกาหลี DTS] [Soundtrack บรรยายไทย + อังกฤษ + อังกฤษฝัง] [เสียงเกาหลี + ซับไทย] [USERLOAD]

0

โหลดหนัง Minari (2020) มินาริ

Minari Drama | February 12, 2021 (United States) Summary: A Korean family starts a farm in 1980s Arkansas.
Countries: United StatesLanguages: Korean, English

เรื่องย่อ Minari (2020) มินาริ

“Minari” เป็นผลงานเขียนบท-กำกับของผู้กำกับลูกครึ่งอเมริกัน-เกาหลีใต้ “อี ไอแซก จอง” ที่ได้แรงบันดาลใจส่วนหนึ่งมาจากชีวิตวัยเด็กของตัวเองกับครอบครัวเล่าเรื่องราวของหนึ่งครอบครัวชาวเกาหลีที่หอบเอาความหวังไปตั้งต้นชีวิตใหม่บนแผ่นดินอเมริกาในยุค 80 พวกเขาเริ่มต้นจากการเป็นชาวสวนชาวไร่บนดินแดนที่ไม่คุ้นเคยต้องปรับตัวให้เข้ากับผู้คนและสภาพแวดล้อมที่แตกต่างจากเกาหลีโดยสิ้นเชิงเหนือสิ่งอื่นใดพวกเขาต้องเผชิญกับบททดสอบของการไขว่คว้าความฝันไปพร้อมกับการทบทวนรกรากของตนเอง!!!

นอกจากเนื้อเรื่องจะเป็นที่สนใจแล้ว ตัวนักแสดงเองก็ถูกชื่นชมไม่แพ้กัน ไม่ว่าจะเป็น “สตีเฟน ยอน” (Walking Dead, Burning, OKJA), “ฮันเยริ” (Hello My Twenties!, Love Guide for Dumpees, As One) และนักแสดงตัวแม่มือรางวัล “ยุนยอจอง” (The Housemaid, Keys to the Heart) พร้อมสองนักแสดงรุ่นเล็ก “โนเอล เคต โช” และ “อลัน คิม”

Complete name : [MINI Super-HQ]_Minari.2020.1080p.BrRip.DTS.x264.Subthai.One2loadup.com.mkv
Format : Matroska
Format version : Version 4
File size : 3.86 GiB
Duration : 1 h 55 min
Overall bit rate : 4 797 kb/s
Movie name : [MINI Super-HQ]_Minari.2020.1080p.BrRip.DTS.x264.Subthai.One2loadup.com
Encoded date : UTC 2021-10-02 20:51:22
Writing application : mkvmerge v9.8.0 (‘Kuglblids’) 64bit
Writing library : libebml v1.3.4 + libmatroska v1.4.5
Cover : Yes
Attachments : Cover – Minari.png

Video
ID : 1
Format : AVC
Format/Info : Advanced Video Codec
Format profile : [email protected]
Format settings : CABAC / 5 Ref Frames
Format settings, CABAC : Yes
Format settings, Reference : 5 frames
Codec ID : V_MPEG4/ISO/AVC
Duration : 1 h 55 min
Bit rate : 4 000 kb/s
Width : 1 920 pixels
Height : 804 pixels
Display aspect ratio : 2.40:1
Frame rate mode : Constant
Frame rate : 23.976 (24000/1001) FPS
Color space : YUV
Chroma subsampling : 4:2:0
Bit depth : 8 bits
Scan type : Progressive
Bits/(Pixel*Frame) : 0.108
Stream size : 3.22 GiB (83%)
Title : [MINI Super-HQ]_Minari.2020.1080p.BrRip.DTS.x264.Subthai.One2loadup.com
Writing library : x264 core 157 r2935 545de2f
Encoding settings : cabac=1 / ref=5 / deblock=1:0:0 / analyse=0x1:0x131 / me=tesa / subme=11 / psy=1 / psy_rd=1.00:0.00 / mixed_ref=1 / me_range=24 / chroma_me=1 / trellis=2 / 8x8dct=0 / cqm=0 / deadzone=21,11 / fast_pskip=0 / chroma_qp_offset=-2 / threads=12 / lookahead_threads=3 / sliced_threads=0 / nr=0 / decimate=1 / interlaced=0 / bluray_compat=0 / constrained_intra=0 / bframes=16 / b_pyramid=2 / b_adapt=2 / b_bias=0 / direct=3 / weightb=1 / open_gop=0 / weightp=2 / keyint=240 / keyint_min=24 / scenecut=40 / intra_refresh=0 / rc_lookahead=60 / rc=2pass / mbtree=1 / bitrate=4000 / ratetol=1.0 / qcomp=0.60 / qpmin=0 / qpmax=69 / qpstep=4 / cplxblur=20.0 / qblur=0.5 / vbv_maxrate=50000 / vbv_bufsize=62500 / nal_hrd=none / filler=0 / ip_ratio=1.40 / aq=1:1.00
Language : Korean
Default : Yes
Forced : No
Color range : Limited
Color primaries : BT.709
Transfer characteristics : BT.709
Matrix coefficients : BT.709

Audio
ID : 2
Format : DTS
Format/Info : Digital Theater Systems
Codec ID : A_DTS
Duration : 1 h 55 min
Bit rate mode : Constant
Bit rate : 755 kb/s
Channel(s) : 6 channels
Channel layout : C L R Ls Rs LFE
Sampling rate : 48.0 kHz
Frame rate : 93.750 FPS (512 SPF)
Bit depth : 24 bits
Compression mode : Lossy
Stream size : 622 MiB (16%)
Title : Korean DTS-5.1
Language : Korean
Default : Yes
Forced : Yes

Text #1
ID : 3
Format : PGS
Codec ID : S_HDMV/PGS
Codec ID/Info : Picture based subtitle format used on BDs/HD-DVDs
Duration : 1 h 52 min
Bit rate : 26.0 kb/s
Count of elements : 2436
Stream size : 20.9 MiB (1%)
Title : Thai 1080p Out PGS
Language : Thai
Default : Yes
Forced : Yes

Text #2
ID : 4
Format : VobSub
Codec ID : S_VOBSUB
Codec ID/Info : Picture based subtitle format used on DVDs
Duration : 1 h 52 min
Bit rate : 6 059 b/s
Count of elements : 1217
Stream size : 4.87 MiB (0%)
Title : Thai 1080p Out
Language : Thai
Default : No
Forced : No

Text #3
ID : 5
Format : VobSub
Codec ID : S_VOBSUB
Codec ID/Info : Picture based subtitle format used on DVDs
Duration : 1 h 52 min
Bit rate : 8 309 b/s
Count of elements : 1217
Stream size : 6.68 MiB (0%)
Title : Thai 1080p Out [Yellow]
Language : Thai
Default : No
Forced : No

Text #4
ID : 6
Format : UTF-8
Codec ID : S_TEXT/UTF8
Codec ID/Info : UTF-8 Plain Text
Duration : 1 h 48 min
Bit rate : 13 b/s
Count of elements : 485
Stream size : 10.6 KiB (0%)
Title : English [Parts Only]
Language : English
Default : No
Forced : No

Text #5
ID : 7
Format : UTF-8
Codec ID : S_TEXT/UTF8
Codec ID/Info : UTF-8 Plain Text
Duration : 1 h 51 min
Bit rate : 14 b/s
Count of elements : 512
Stream size : 11.8 KiB (0%)
Title : English SRT
Language : English
Default : No
Forced : No

Menu
00:00:00.000 : en:Chapter 01
00:05:53.770 : en:Chapter 02
00:13:53.791 : en:Chapter 03
00:20:37.486 : en:Chapter 04
00:26:30.964 : en:Chapter 05
00:31:25.633 : en:Chapter 06
00:37:57.984 : en:Chapter 07
00:44:06.977 : en:Chapter 08
00:50:30.360 : en:Chapter 09
00:57:55.263 : en:Chapter 10
01:04:23.776 : en:Chapter 11
01:11:48.637 : en:Chapter 12
01:20:51.221 : en:Chapter 13
01:30:46.899 : en:Chapter 14
01:42:08.789 : en:Chapter 15
01:49:08.542 : en:Chapter 16

DOWNLOAD


PART01 |||| PART02 |||| PART03 |||| PART04

PART01 |||| PART02 |||| PART03 |||| PART04

PART01 |||| PART02 |||| PART03 |||| PART04

PART01 |||| PART02 |||| PART03 |||| PART04

PART01 |||| PART02 |||| PART03 |||| PART04


Leave A Reply

อีเมล์ของคุณจะไม่แสดงให้เห็น Your email address will not be published.

%d bloggers like this: