[MINI Super-HQ] Kung Fu Panda 4 (2024) กังฟูแพนด้า ภาค 4 [1080p] [พากย์ไทย 5.1 + เสียงอังกฤษ 5.1] [บรรยายไทย + อังกฤษ] [เสียงไทย + ซับไทย] [DOSYAUPLOAD]

0

Kung Fu Panda 4 (2024) กังฟูแพนด้า ภาค 4

โหลดหนัง Kung Fu Panda 4 (2024) กังฟูแพนด้า ภาค 4

Kung Fu Panda 4 | March 8, 2024 (United States) Summary: After Po is tapped to become the Spiritual Leader of the Valley of Peace, he needs to find and train a new Dragon Warrior, while a wicked sorceress plans to re-summon all the master villains... Read all
Countries: United States, ChinaLanguages: Mandarin, Chinese, English

เรื่องย่อ Kung Fu Panda 4 (2024) กังฟูแพนด้า ภาค 4

หลังจากการผจญภัยท้ามฤตยูเพื่อปราบวายร้ายระดับโลกมา ถึงสามครั้งสามคราด้วยความกล้าหาญที่หาตัวจับยากและทักษะศิลปะการต่อสู้สุดบ้าคลั่งของเขาโป นักรบมังกร ก็ถูกชะตากรรมลิขิตให้…พักผ่อนเสียที หรือถ้าจะพูดให้เฉพาะเจาะจงกว่านั้น เขาได้รับการทาบทามให้เป็นผู้นำทางจิตวิญญาณแห่งหุบเขาสันติภาพซึ่งทำให้เกิดปัญหาที่ชัดเจนหลายประการด้วยกันข้อแรก โปรู้เรื่องเกี่ยวกับการเป็นผู้นำทางจิตวิญญาณมากพอๆ กับที่เขารู้เกี่ยวกับวิถีการลดน้ำหนักด้วยการกินแบบมนุษย์ยุคหินและข้อสอง เขาต้องตามหาและฝึกฝนนักรบมังกรคนใหม่ให้ไวก่อนที่เขาจะเข้ารับตำแหน่งใหม่ที่สูงส่งของเขาได้ซ้ำร้ายกว่านั้น เพิ่งมีผู้พบเห็น กิ้งก่าแปลงกาย วายร้ายจอมเจ้าเล่ห์และทรงพลัง กิ้งก่าจิ๋วที่สามารถเปลี่ยนร่างเป็นสัตว์ชนิดไหนก็ได้ ไม่ว่าจะตัวใหญ่บึ๊กหรือเล็กกระจิ๋วหลิวก็ตามคาเมเลียนได้ใช้ดวงตาเล็กจิ๋วที่โลภมากของเธอเล็งไปที่ไม้เท้าแห่งปัญญาของโป ซึ่งจะทำให้เธอมีพลังในการเรียกเหล่าวายร้ายทุกตัวที่โปเคยกำราบไปสู่ดินแดนจิตวิญญาณให้กลับมาอีกครั้งดังนั้น โปก็ต้องการความช่วยเหลือ เขาพบความช่วยเหลือที่ว่า (หรือประมาณนั้นแหละ) จากหัวขโมยสมองไว เจิน จิ้งจอกคอร์แซ็ก ผู้ทำให้โปหงุดหงิดจนขนฟูแต่มีฝีมือที่เป็นประโยชน์อย่างยิ่ง ในการเดินทางเพื่อปกป้องหุบเขาแห่งสันติจากกรงเล็บสัตว์เลื้อยคลานของคาเมเลียน คู่หูคู่ตลกนี้จะต้องจับอุ้งเท้าร่วมงานกัน
และในการนี้เอง โปจะได้ค้นพบว่า ฮีโรอาจถูกค้นพบได้ในสถานที่ที่คาดไม่ถึงที่สุด!!!

Complete name : [MINI Super-HQ]_Kung.Fu.Panda.4.2024.1080p.BrRip.EAC3.x264.THD.One2loadup.com.mkv
Format : Matroska
Format version : Version 4
File size : 4.96 GiB
Duration : 1 h 33 min
Overall bit rate : 7 587 kb/s
Movie name : [MINI Super-HQ]_Kung.Fu.Panda.4.2024.1080p.BrRip.EAC3.x264.THD.One2loadup.com
Encoded date : UTC 2024-05-29 08:57:44
Writing application : mkvmerge v57.0.0 (‘Till The End’) 64-bit
Writing library : libebml v1.4.2 + libmatroska v1.6.4

Video
ID : 1
Format : AVC
Format/Info : Advanced Video Codec
Format profile : [email protected]
Format settings : CABAC / 5 Ref Frames
Format settings, CABAC : Yes
Format settings, Reference : 5 frames
Codec ID : V_MPEG4/ISO/AVC
Duration : 1 h 33 min
Bit rate : 6 277 kb/s
Width : 1 920 pixels
Height : 804 pixels
Display aspect ratio : 2.40:1
Frame rate mode : Constant
Frame rate : 23.976 (24000/1001) FPS
Color space : YUV
Chroma subsampling : 4:2:0
Bit depth : 8 bits
Scan type : Progressive
Bits/(Pixel*Frame) : 0.170
Stream size : 4.11 GiB (83%)
Title : [MINI Super-HQ]_Kung.Fu.Panda.4.2024.1080p.BrRip.EAC3.x264.THD.One2loadup.com
Writing library : x264 core 157 r2935 545de2f
Encoding settings : cabac=1 / ref=5 / deblock=1:0:0 / analyse=0x1:0x131 / me=tesa / subme=11 / psy=1 / psy_rd=1.00:0.00 / mixed_ref=1 / me_range=24 / chroma_me=1 / trellis=2 / 8x8dct=0 / cqm=0 / deadzone=21,11 / fast_pskip=0 / chroma_qp_offset=-2 / threads=18 / lookahead_threads=4 / sliced_threads=0 / nr=0 / decimate=1 / interlaced=0 / bluray_compat=0 / constrained_intra=0 / bframes=16 / b_pyramid=2 / b_adapt=2 / b_bias=0 / direct=3 / weightb=1 / open_gop=0 / weightp=2 / keyint=240 / keyint_min=24 / scenecut=40 / intra_refresh=0 / rc_lookahead=60 / rc=2pass / mbtree=1 / bitrate=6277 / ratetol=1.0 / qcomp=0.60 / qpmin=0 / qpmax=69 / qpstep=4 / cplxblur=20.0 / qblur=0.5 / vbv_maxrate=50000 / vbv_bufsize=62500 / nal_hrd=none / filler=0 / ip_ratio=1.40 / aq=1:1.00
Default : Yes
Forced : No
Color range : Limited
Color primaries : BT.709
Transfer characteristics : BT.709
Matrix coefficients : BT.709

Audio #1
ID : 2
Format : AC-3
Format/Info : Audio Coding 3
Commercial name : Dolby Digital
Codec ID : A_AC3
Duration : 1 h 33 min
Bit rate mode : Constant
Bit rate : 384 kb/s
Channel(s) : 6 channels
Channel layout : L R C LFE Ls Rs
Sampling rate : 48.0 kHz
Frame rate : 31.250 FPS (1536 SPF)
Compression mode : Lossy
Stream size : 257 MiB (5%)
Title : Thai DD 5.1
Language : Thai
Service kind : Complete Main
Default : Yes
Forced : No

Audio #2
ID : 3
Format : E-AC-3 JOC
Format/Info : Enhanced AC-3 with Joint Object Coding
Commercial name : Dolby Digital Plus with Dolby Atmos
Codec ID : A_EAC3
Duration : 1 h 33 min
Bit rate mode : Constant
Bit rate : 768 kb/s
Channel(s) : 6 channels
Channel layout : L R C LFE Ls Rs
Sampling rate : 48.0 kHz
Frame rate : 31.250 FPS (1536 SPF)
Compression mode : Lossy
Stream size : 514 MiB (10%)
Title : English DD+ 5.1 Atmos
Language : English
Service kind : Complete Main
Default : No
Forced : No
Complexity index : 16
Number of dynamic objects : 15
Bed channel count : 1 channel
Bed channel configuration : LFE

Text #1
ID : 4
Format : PGS
Codec ID : S_HDMV/PGS
Codec ID/Info : Picture based subtitle format used on BDs/HD-DVDs
Duration : 1 h 31 min
Bit rate : 42.2 kb/s
Count of elements : 2512
Stream size : 27.6 MiB (1%)
Title : Thai PGS
Language : Thai
Default : Yes
Forced : No

Text #2
ID : 5
Format : VobSub
Codec ID : S_VOBSUB
Codec ID/Info : Picture based subtitle format used on DVDs
Duration : 1 h 31 min
Bit rate : 10.5 kb/s
Count of elements : 1256
Stream size : 6.90 MiB (0%)
Title : Thai VobSub
Language : Thai
Default : No
Forced : No

Text #3
ID : 6
Format : VobSub
Codec ID : S_VOBSUB
Codec ID/Info : Picture based subtitle format used on DVDs
Duration : 1 h 31 min
Bit rate : 10.5 kb/s
Count of elements : 1256
Stream size : 6.89 MiB (0%)
Title : Thai VobSub [Yellow]
Language : Thai
Default : No
Forced : No

Text #4
ID : 7
Format : PGS
Codec ID : S_HDMV/PGS
Codec ID/Info : Picture based subtitle format used on BDs/HD-DVDs
Duration : 1 h 31 min
Bit rate : 42.2 kb/s
Count of elements : 2512
Stream size : 27.6 MiB (1%)
Title : Thai PGS [Out]
Language : Thai
Default : No
Forced : No

Text #5
ID : 8
Format : PGS
Codec ID : S_HDMV/PGS
Codec ID/Info : Picture based subtitle format used on BDs/HD-DVDs
Duration : 1 h 26 min
Bit rate : 56.0 kb/s
Count of elements : 3398
Stream size : 34.9 MiB (1%)
Title : English PGS
Language : English
Default : No
Forced : No

Menu
00:00:00.000 : :Chapter 1
00:04:18.800 : :Chapter 2
00:09:04.043 : :Chapter 3
00:12:24.911 : :Chapter 4
00:16:55.139 : :Chapter 5
00:20:54.879 : :Chapter 6
00:25:59.558 : :Chapter 7
00:31:00.400 : :Chapter 8
00:35:24.789 : :Chapter 9
00:40:16.706 : :Chapter 10
00:44:23.661 : :Chapter 11
00:50:42.873 : :Chapter 12
00:55:15.938 : :Chapter 13
01:00:46.142 : :Chapter 14
01:04:06.593 : :Chapter 15
01:08:40.825 : :Chapter 16
01:12:17.416 : :Chapter 17
01:17:06.705 : :Chapter 18
01:22:26.233 : :Chapter 19
01:24:48.166 : :Chapter 20

DOWNLOAD


PART01 |||| PART02 |||| PART03 |||| PART04 |||| PART05 |||| PART06

PART01 |||| PART02 |||| PART03 |||| PART04 |||| PART05 |||| PART06

PART01 |||| PART02 |||| PART03 |||| PART04 |||| PART05 |||| PART06

PART01 |||| PART02 |||| PART03 |||| PART04 |||| PART05 |||| PART06

PART01 |||| PART02 |||| PART03 |||| PART04 |||| PART05 |||| PART06


Leave A Reply

อีเมล์ของคุณจะไม่แสดงให้เห็น Your email address will not be published.