[MINI-HD] The Kite Runner (2007) เด็กเก็บว่าว [1080p] [พากย์ไทย 5.1 + เสียงอังกฤษ DTS] [บรรยายไทย + อังกฤษ] [เสียงไทย + ซับไทย] [PANDAFILE]

0

โหลดหนัง The Kite Runner (2007) เด็กเก็บว่าว

The Kite Runner (2007) 128min | Drama | 11 January 2008 (USA) Summary: After spending years in California, Amir returns to his homeland in Afghanistan to help his old friend Hassan, whose son is in trouble.
Countries: USA, China, UK, AfghanistanLanguages: Dari, English, Pushto, Russian, Urdu

เรื่องย่อ The Kite Runner (2007) เด็กเก็บว่าว

ในประเทศที่แตกแยกจนจะก้าวเข้าสู่สงครามได้ทุกนาที อาเมียร์ กับ ฮัสซัน เพื่อนสนิทสองคนกำลังจะต้องแยกทางจากกันไปตลอดกาล บ่ายวันท้องฟ้าสดใสในเมืองคาบูล ทั้งคู่สนุกสนานกับการแข่งว่าว แต่ผลจากชัยชนะอย่างยิ่งใหญ่ในวันนั้น กลับทำให้เด็กคนหนึ่งได้คิดว่า การหักหลังเพื่อนนั้นเป็นตราบาปที่จะติดตรึงอยู่ในใจ ไปชั่วชีวิต เขาจึงเริ่มออกเดินทางเพื่อไถ่บาป มาบัดนี้หลังจากที่ใช้ชีวิตอยู่ในสหรัฐอเมริกามา 20 ปีกว่า อาเมียร์เดินทางกลับไปยังอัฟกานิสถานที่เต็มไปด้วยอั นตราย ภายใต้การปกครองด้วยกฎเหล็กของกลุ่มตาลิบัน เพื่อเผยความลับที่ตามหลอกหลอนเขามาชั่วชีวิต พยายามแก้ไขในสิ่งผิดและรวบรวมความกล้าหาญ ที่จะทำในสิ่งที่ถูกต้องเป็นครั้งสุดท้าย

Complete name : [MINI-HD]_The.Kite.Runner.2007.1080p.BluRay.DTS.x264.One2loadup.com.mkv
Format : Matroska
Format version : Version 4
File size : 6.08 GiB
Duration : 2 h 7 min
Overall bit rate : 6 818 kb/s
Movie name : [MINI-HD]_The.Kite.Runner.2007.1080p.BluRay.DTS.x264.One2loadup.com
Encoded date : UTC 2017-11-10 02:32:13
Writing application : mkvmerge v6.9.1 (‘Blue Panther’) 32bit built on Apr 18 2014 18:15:44
Writing library : libebml v1.3.0 + libmatroska v1.4.1

Video
ID : 1
Format : AVC
Format/Info : Advanced Video Codec
Format profile : [email protected]
Format settings : CABAC / 4 Ref Frames
Format settings, CABAC : Yes
Format settings, Reference : 4 frames
Codec ID : V_MPEG4/ISO/AVC
Duration : 2 h 7 min
Bit rate : 5 000 kb/s
Width : 1 920 pixels
Height : 1 080 pixels
Display aspect ratio : 16:9
Frame rate mode : Constant
Frame rate : 24.000 FPS
Color space : YUV
Chroma subsampling : 4:2:0
Bit depth : 8 bits
Scan type : Progressive
Bits/(Pixel*Frame) : 0.100
Stream size : 4.27 GiB (70%)
Title : [MINI-HD]_The.Kite.Runner.2007.1080p.BluRay.DTS.x264.One2loadup.com
Writing library : x264 core 119
Encoding settings : cabac=1 / ref=3 / deblock=1:0:0 / analyse=0x3:0x113 / me=hex / subme=7 / psy=1 / psy_rd=1.00:0.00 / mixed_ref=1 / me_range=16 / chroma_me=1 / trellis=1 / 8x8dct=1 / cqm=0 / deadzone=21,11 / fast_pskip=1 / chroma_qp_offset=-2 / threads=8 / sliced_threads=0 / nr=0 / decimate=1 / interlaced=0 / bluray_compat=0 / constrained_intra=0 / bframes=3 / b_pyramid=2 / b_adapt=1 / b_bias=0 / direct=1 / weightb=1 / open_gop=0 / weightp=2 / keyint=250 / keyint_min=24 / scenecut=40 / intra_refresh=0 / rc_lookahead=40 / rc=abr / mbtree=1 / bitrate=5000 / ratetol=1.0 / qcomp=0.60 / qpmin=0 / qpmax=69 / qpstep=4 / ip_ratio=1.40 / aq=1:1.00
Language : English
Default : Yes
Forced : Yes

Audio #1
ID : 2
Format : DTS
Format/Info : Digital Theater Systems
Codec ID : A_DTS
Duration : 2 h 7 min
Bit rate mode : Constant
Bit rate : 1 509 kb/s
Channel(s) : 6 channels
Channel layout : C L R Ls Rs LFE
Sampling rate : 48.0 kHz
Frame rate : 93.750 FPS (512 SPF)
Bit depth : 24 bits
Compression mode : Lossy
Stream size : 1.35 GiB (22%)
Title : Dari DTS
Language : English
Default : Yes
Forced : Yes

Audio #2
ID : 3
Format : AC-3
Format/Info : Audio Coding 3
Commercial name : Dolby Digital
Codec ID : A_AC3
Duration : 2 h 7 min
Bit rate mode : Constant
Bit rate : 384 kb/s
Channel(s) : 6 channels
Channel layout : L R C LFE Ls Rs
Sampling rate : 48.0 kHz
Frame rate : 31.250 FPS (1536 SPF)
Compression mode : Lossy
Stream size : 351 MiB (6%)
Language : Thai
Service kind : Complete Main
Default : No
Forced : Yes

Text #1
ID : 4
Format : VobSub
Muxing mode : zlib
Codec ID : S_VOBSUB
Codec ID/Info : Picture based subtitle format used on DVDs
Language : Thai
Default : Yes
Forced : Yes

Text #2
ID : 5
Format : VobSub
Muxing mode : zlib
Codec ID : S_VOBSUB
Codec ID/Info : Picture based subtitle format used on DVDs
Language : Thai
Default : No
Forced : Yes

Text #3
ID : 6
Format : PGS
Muxing mode : zlib
Codec ID : S_HDMV/PGS
Codec ID/Info : Picture based subtitle format used on BDs/HD-DVDs
Language : Thai
Default : No
Forced : Yes

Text #4
ID : 7
Format : PGS
Muxing mode : zlib
Codec ID : S_HDMV/PGS
Codec ID/Info : Picture based subtitle format used on BDs/HD-DVDs
Language : Thai
Default : No
Forced : Yes

Text #5
ID : 8
Format : UTF-8
Codec ID : S_TEXT/UTF8
Codec ID/Info : UTF-8 Plain Text
Language : English
Default : No
Forced : Yes

DOWNLOAD


PART01 |||| PART02 |||| PART03 |||| PART04 |||| PART05 |||| PART06

PART01 |||| PART02 |||| PART03 |||| PART04 |||| PART05 |||| PART06

PART01 |||| PART02 |||| PART03 |||| PART04 |||| PART05 |||| PART06

PART01 |||| PART02 |||| PART03 |||| PART04 |||| PART05 |||| PART06

PART01 |||| PART02 |||| PART03 |||| PART04 |||| PART05 |||| PART06


Leave A Reply

Your email address will not be published.

%d bloggers like this: