[MINI Super-HQ] Jungle Cruise (2021) ผจญภัยล่องป่ามหัศจรรย์ [1080p] [พากย์อังกฤษ 5.1] [Soundtrack บรรยายไทย + อังกฤษ] [เสียงอังกฤษ + ซับไทย] [USERLOAD]

0

โหลดหนัง Jungle Cruise (2021) ผจญภัยล่องป่ามหัศจรรย์

Jungle Cruise 127min | Action, Adventure, Comedy, Fantasy | July 30, 2021 (United States) Summary: Based on Disneyland's theme park ride where a small riverboat takes a group of travelers through a jungle filled with dangerous animals and reptiles but with a supernatural element.
Countries: United StatesLanguages: English, German, Spanish, Italian, Tupi, French, Portuguese, Latin

เรื่องย่อ Jungle Cruise (2021) ผจญภัยล่องป่ามหัศจรรย์

ดร.ลิลี่ ฮัฟตัน (เอมิลี่ บลันท์) นักสำรวจผู้กล้าหาญ เดินทางจากลอนดอนสู่ป่าอะเมซอน พร้อมทั้งว่าจ้างกัปตันแฟรงค์ วูล์ฟ (ดเวย์น จอห์นสัน) ผู้ปราดเปรื่อง ให้เป็นผู้นำทางในการล่องแม่น้ำ โดยเรือคู่ใจของเขา La Quila ที่แม้สภาพจะโคลงเคลงแต่ก็ยังดูดี ลิลี่ มีความมุ่งมั่นที่จะตามหาต้นไม้ในตำนานที่มีความสามารถในการรักษาเพื่อนำพลังนี้มาใช้พัฒนาการแพทย์ในการผจญภัยครั้งนี้ทั้งสองจะต้องเผชิญกับอันตรายที่ไม่คาดฝันจากสิ่งลี้ลับเหนือธรรมชาติ และสิ่งล่อลวงอันสวยงามในป่านี้ แต่ยิ่งเข้าใกล้ความลับของต้นไม้ในตำนานเท่าไหร่ ทั้ง ลิลี่ และ แฟรงค์ ต่างวางเงินเดิมพันสูงขึ้นเรื่อย ๆ พร้อมกับชะตาของมนุษย์ที่อาจจะสั่นคลอน

Complete name : [MINI Super-HQ]_Jungle.Cruise.2021.1080p.DSNYP.WEB-DL.EAC3.x264.Subthai.One2loadup.com.mkv
Format : Matroska
Format version : Version 4
File size : 4.28 GiB
Duration : 2 h 7 min
Overall bit rate : 4 813 kb/s
Movie name : [MINI Super-HQ]_Jungle.Cruise.2021.1080p.DSNYP.WEB-DL.EAC3.x264.Subthai.One2loadup.com
Encoded date : UTC 2021-07-31 14:09:35
Writing application : mkvmerge v59.0.0 (‘Shining Star’) 64-bit
Writing library : libebml v1.4.2 + libmatroska v1.6.4

Video
ID : 1
Format : AVC
Format/Info : Advanced Video Codec
Format profile : [email protected]
Format settings : CABAC / 3 Ref Frames
Format settings, CABAC : Yes
Format settings, Reference : 3 frames
Codec ID : V_MPEG4/ISO/AVC
Duration : 2 h 7 min
Bit rate : 4 020 kb/s
Width : 1 920 pixels
Height : 804 pixels
Display aspect ratio : 2.40:1
Frame rate mode : Constant
Frame rate : 23.976 (24000/1001) FPS
Color space : YUV
Chroma subsampling : 4:2:0
Bit depth : 8 bits
Scan type : Progressive
Bits/(Pixel*Frame) : 0.109
Stream size : 3.57 GiB (84%)
Title : [MINI Super-HQ]_Jungle.Cruise.2021.1080p.DSNYP.WEB-DL.EAC3.x264.Subthai.One2loadup.com
Language : English
Default : Yes
Forced : No
Color range : Limited
Color primaries : BT.709
Transfer characteristics : BT.709
Matrix coefficients : BT.709

Audio
ID : 2
Format : E-AC-3 JOC
Format/Info : Enhanced AC-3 with Joint Object Coding
Commercial name : Dolby Digital Plus with Dolby Atmos
Codec ID : A_EAC3
Duration : 2 h 7 min
Bit rate mode : Constant
Bit rate : 768 kb/s
Channel(s) : 6 channels
Channel layout : L R C LFE Ls Rs
Sampling rate : 48.0 kHz
Frame rate : 31.250 FPS (1536 SPF)
Compression mode : Lossy
Stream size : 699 MiB (16%)
Title : E-AC3 Atmos English
Language : English
Service kind : Complete Main
Default : Yes
Forced : No
Complexity index : 16
Number of dynamic objects : 15
Bed channel count : 1 channel
Bed channel configuration : LFE

Text #1
ID : 3
Format : VobSub
Muxing mode : zlib
Codec ID : S_VOBSUB
Codec ID/Info : Picture based subtitle format used on DVDs
Duration : 1 h 56 min
Bit rate : 12.9 kb/s
Count of elements : 1557
Stream size : 10.8 MiB (0%)
Title : Sub Thai 1080p
Language : Thai
Default : No
Forced : No

Text #2
ID : 4
Format : UTF-8
Codec ID : S_TEXT/UTF8
Codec ID/Info : UTF-8 Plain Text
Duration : 1 h 56 min
Bit rate : 134 b/s
Count of elements : 1557
Stream size : 115 KiB (0%)
Title : Sub Thai SRT
Language : Thai
Default : No
Forced : No

Text #3
ID : 5
Format : PGS
Muxing mode : zlib
Codec ID : S_HDMV/PGS
Codec ID/Info : Picture based subtitle format used on BDs/HD-DVDs
Duration : 1 h 56 min
Bit rate : 36.6 kb/s
Count of elements : 3114
Stream size : 30.6 MiB (1%)
Title : Sub Thai PGS
Language : Thai
Default : Yes
Forced : No

Text #4
ID : 6
Format : UTF-8
Codec ID : S_TEXT/UTF8
Codec ID/Info : UTF-8 Plain Text
Duration : 2 h 6 min
Bit rate : 55 b/s
Count of elements : 1643
Stream size : 51.1 KiB (0%)
Title : Sub English SRT
Language : English
Default : No
Forced : No

DOWNLOAD


PART01 |||| PART02 |||| PART03 |||| PART04 |||| PART05

PART01 |||| PART02 |||| PART03 |||| PART04 |||| PART05

PART01 |||| PART02 |||| PART03 |||| PART04 |||| PART05

PART01 |||| PART02 |||| PART03 |||| PART04 |||| PART05

PART01 |||| PART02 |||| PART03 |||| PART04 |||| PART05


Leave A Reply

อีเมล์ของคุณจะไม่แสดงให้เห็น Your email address will not be published.

%d bloggers like this: