[MINI Super-HQ] The Jungle Book (2016) เมาคลีลูกหมาป่า [1080p] [พากย์ไทย 5.1 + เสียงอังกฤษ DTS] [บรรยายไทย + อังกฤษ] [เสียงไทย + ซับไทย] [PANDAFILE]

5

โหลดหนัง The Jungle Book (2016) เมาคลีลูกหมาป่า

The Jungle Book | April 15, 2016 (United States) Summary: After a threat from the tiger Shere Khan forces him to flee the jungle, a man-cub named Mowgli embarks on a journey of self discovery with the help of panther Bagheera and free-spirited bear... Read all
Countries: United Kingdom, United StatesLanguages: English, Hindi, Bengali, Kannada, Telugu, Tamil, Assamese, Urdu, Oriya, Punjabi, Malayalam, Marathi, Rajasthani, Haryanvi, Nepali

เรื่องย่อ The Jungle Book (2016) เมาคลีลูกหมาป่า

The Jungle Book ในรูปแบบ Live Action เล่าเรื่องราวของเมาคลี ทารกที่ถูกสัตว์ป่าเก็บไปเลี้ยง จนเติบโตขึ้น ท่ามกลางการต่อสู้ของสิงสาราสัตว์และแชร์คาน พญาเสือโคร่ง โดยได้ นีล เศรษฐี (Neel Sethi) นักแสดงเด็กหน้าใหม่ของอินเดีย มาเล่นเป็นเมาคลี ตามแบบฉบับบทประพันธ์ดั้งเดิม

Complete name : [MINI Super-HQ]_The.Jungle.Book.2016.1080p.BrRip.DTS.x264.One2loadup.com.mkv
Format : Matroska
Format version : Version 4 / Version 2
File size : 3.87 GiB
Duration : 1 h 45 min
Overall bit rate : 5 226 kb/s
Movie name : [MINI Super-HQ]_The.Jungle.Book.2016.1080p.BrRip.DTS.x264.One2loadup.com
Encoded date : UTC 2010-02-22 21:41:31
Writing application : mkvmerge v5.9.0 (‘On The Loose’) built on Dec 9 2012 15:37:01
Writing library : libebml v1.3.0 + libmatroska v1.4.0

Video
ID : 1
Format : AVC
Format/Info : Advanced Video Codec
Format profile : [email protected]
Format settings, CABAC : Yes
Format settings, RefFrames : 4 frames
Codec ID : V_MPEG4/ISO/AVC
Duration : 1 h 45 min
Bit rate : 4 004 kb/s
Width : 1 920 pixels
Height : 1 040 pixels
Display aspect ratio : 1.85:1
Frame rate mode : Constant
Frame rate : 23.976 (24000/1001) FPS
Color space : YUV
Chroma subsampling : 4:2:0
Bit depth : 8 bits
Scan type : Progressive
Bits/(Pixel*Frame) : 0.084
Stream size : 2.95 GiB (76%)
Title : [MINI Super-HQ]_The.Jungle.Book.2016.1080p.BrRip.DTS.x264.One2loadup.com
Writing library : x264 core 130 r2273 b3065e6
Encoding settings : cabac=1 / ref=3 / deblock=1:0:0 / analyse=0x3:0x113 / me=umh / subme=11 / psy=1 / psy_rd=1.00:0.00 / mixed_ref=1 / me_range=48 / chroma_me=1 / trellis=2 / 8x8dct=1 / cqm=0 / deadzone=21,11 / fast_pskip=1 / chroma_qp_offset=-2 / threads=24 / lookahead_threads=2 / sliced_threads=0 / nr=0 / decimate=1 / interlaced=0 / bluray_compat=0 / constrained_intra=0 / bframes=3 / b_pyramid=2 / b_adapt=2 / b_bias=0 / direct=1 / weightb=1 / open_gop=0 / weightp=2 / keyint=240 / keyint_min=24 / scenecut=40 / intra_refresh=0 / rc_lookahead=40 / rc=2pass / mbtree=1 / bitrate=4004 / ratetol=1.0 / qcomp=0.60 / qpmin=0 / qpmax=69 / qpstep=4 / cplxblur=20.0 / qblur=0.5 / ip_ratio=1.40 / aq=1:1.00
Language : English
Default : Yes
Forced : No
Color range : Limited
Color primaries : BT.709
Transfer characteristics : BT.709
Matrix coefficients : BT.709

Audio #1
ID : 2
Format : AC-3
Format/Info : Audio Coding 3
Format settings, Endianness : Big
Codec ID : A_AC3
Duration : 1 h 45 min
Bit rate mode : Constant
Bit rate : 384 kb/s
Channel(s) : 6 channels
Channel positions : Front: L C R, Side: L R, LFE
Sampling rate : 48.0 kHz
Frame rate : 31.250 FPS (1536 SPF)
Bit depth : 16 bits
Compression mode : Lossy
Stream size : 291 MiB (7%)
Title : Thai Master
Language : Thai
Service kind : Complete Main
Default : No
Forced : No

Audio #2
ID : 3
Format : DTS
Format/Info : Digital Theater Systems
Mode : 16
Format settings, Endianness : Big
Codec ID : A_DTS
Duration : 1 h 45 min
Bit rate mode : Constant
Bit rate : 755 kb/s
Channel(s) : 6 channels
Channel positions : Front: L C R, Side: L R, LFE
Sampling rate : 48.0 kHz
Frame rate : 93.750 FPS (512 SPF)
Bit depth : 24 bits
Compression mode : Lossy
Stream size : 572 MiB (14%)
Title : English DTS
Language : English
Default : No
Forced : No

Text #1
ID : 4
Format : VobSub
Codec ID : S_VOBSUB
Codec ID/Info : Picture based subtitle format used on DVDs
Title : Thai 480p
Language : Thai
Default : No
Forced : No

Text #2
ID : 5
Format : VobSub
Codec ID : S_VOBSUB
Codec ID/Info : Picture based subtitle format used on DVDs
Title : Thai 720p
Language : Thai
Default : No
Forced : No

Text #3
ID : 6
Format : VobSub
Codec ID : S_VOBSUB
Codec ID/Info : Picture based subtitle format used on DVDs
Title : Thai 1080p
Language : Thai
Default : Yes
Forced : Yes

Text #4
ID : 7
Format : VobSub
Codec ID : S_VOBSUB
Codec ID/Info : Picture based subtitle format used on DVDs
Title : Thai 1080p Yellow
Language : Thai
Default : No
Forced : No

Text #5
ID : 8
Format : VobSub
Codec ID : S_VOBSUB
Codec ID/Info : Picture based subtitle format used on DVDs
Title : Thai 1080p BIG
Language : Thai
Default : No
Forced : No

Text #6
ID : 9
Format : PGS
Codec ID : S_HDMV/PGS
Codec ID/Info : Picture based subtitle format used on BDs/HD-DVDs
Title : Thai PGS
Language : Thai
Default : No
Forced : No

Text #7
ID : 10
Format : PGS
Codec ID : S_HDMV/PGS
Codec ID/Info : Picture based subtitle format used on BDs/HD-DVDs
Title : Thai PGS Yellow
Language : Thai
Default : No
Forced : No

Text #8
ID : 11
Format : VobSub
Codec ID : S_VOBSUB
Codec ID/Info : Picture based subtitle format used on DVDs
Title : English
Language : English
Default : No
Forced : No

Menu
00:00:00.000 : en:Chapter 1
00:00:48.257 : en:Chapter 2
00:05:15.649 : en:Chapter 3
00:09:02.459 : en:Chapter 4
00:12:42.220 : en:Chapter 5
00:16:34.452 : en:Chapter 6
00:21:20.196 : en:Chapter 7
00:27:15.175 : en:Chapter 8
00:35:04.144 : en:Chapter 9
00:43:21.849 : en:Chapter 10
00:48:05.132 : en:Chapter 11
00:53:29.373 : en:Chapter 12
00:58:03.272 : en:Chapter 13
01:05:46.443 : en:Chapter 14
01:10:35.523 : en:Chapter 15
01:17:01.325 : en:Chapter 16
01:20:49.094 : en:Chapter 17
01:24:46.540 : en:Chapter 18
01:30:33.136 : en:Chapter 19
01:35:53.373 : en:Chapter 20

DOWNLOAD


PART01 |||| PART02 |||| PART03 |||| PART04

PART01 |||| PART02 |||| PART03 |||| PART04

PART01 |||| PART02 |||| PART03 |||| PART04

PART01 |||| PART02 |||| PART03 |||| PART04

PART01 |||| PART02 |||| PART03 |||| PART04


5 Comments
  1. Boydm Lion
    Boydm Lion says

    โหลดไม่ได้แล้วครับ รบกวนด้วยนะครับ

    1. Admin
      Admin says

      แก้ไขเรียบร้อยฮ๊ะ

      1. Boydm Lion
        Boydm Lion says

        ขอบคุณครับผม

  2. ฺBESTNATTAPON says

    ลิงค์เสียครับ

    1. Admin
      Admin says

      แก้ไขเรียบร้อยฮ๊ะ

Leave A Reply

อีเมล์ของคุณจะไม่แสดงให้เห็น Your email address will not be published.

%d bloggers like this: