[MINI Super-HQ] Ip Man 4: The Finale (2019) ยิปมัน ภาค 4 [1080p] [พากย์ไทย 5.1 + เสียงจีน DTS] [บรรยายไทย + อังกฤษ] [เสียงไทย + ซับไทย] [PANDAFILE]

0

โหลดหนัง Ip Man 4: The Finale (2019) ยิปมัน ภาค 4

Ip Man 4: The Finale (2019) 1h 47min | Action, Biography, Drama | 5 March 2020 (Germany) Summary: The Kung Fu master travels to the U.S. where his student has upset the local martial arts community by opening a Wing Chun school.
Countries: Hong Kong, ChinaLanguages: Cantonese, English, Mandarin

เรื่องย่อ Ip Man 4: The Finale (2019) ยิปมัน ภาค 4

Ip Man 4 The Finale ที่สนามกีฬาในเมืองซานฟรานซิสโก ผู้ชมกำลังส่งเสียงปรบมือให้กับบรูซลี ที่กำลังโชว์การสาธิตศิลปะการต่อสู้ของจีน ยิปมันนั่งอยู่ในกลุ่มผู้ชมและชื่นชมลูกศิษย์เบอร์หนี่งของเขา การมาอเมริกาครั้งนี้ของยิป มันไม่ใช่แค่มาเยี่ยม บรูซลี แต่คือการหาโรงเรียนให้ลูกชายคนเดียวของเขา เพื่อให้ลูกชายได้เปิดโลกกว้าง ยิปมันรู้ดีว่าช่วงเวลาสงบสุขแบบนี้เป็นแค่ภาพลวงตา เพราะที่นี่ยังมีการเลือกปฏิบัติทางเชื้อชาติที่หยั่งรากลึก และสถานการณ์จริงมันเลวร้ายยิ่งกว่าที่เขาคิดไว้ เมื่อมาอยู่ไกลบ้านเกิด เขาจึงเป็นห่วงและอยากพูดคุยกับลูกชาย แต่ทุกครั้งที่เขาโทรกลับบ้านลูกชายของเขาปฏิเสธที่จะรับสาย ความเหงาที่ยิปมันมี บวกกับอาการไอที่แย่ลงเรื่อยๆ ของเขาหลังจากเขาถูกวินิจฉัยว่าเขาเป็นโรคมะเร็ง เขาจึงต้องเตรียมตัวสำหรับอนาคต โดยเฉพาะสำหรับลูกชาย แต่ดินแดนที่เขาเคยฝันถึงแห่งนี้ไม่เหมือนที่เขาคิด ความแตกต่างทางวัฒนธรรม ความแตกต่างทางวัย และความรู้สึกยิปมันหลงเข้าไปในกลางผู้เชี่ยวชาญศิลปะการต่อสู้ฝั่งจีนและฝั่งตะวันตก หลายคนได้รับบาดเจ็บสาหัส จากการลงมือโดย บาร์ตัน เจ้าหน้าที่ตำรวจอเมริกันทำให้ยิปมันต้องหันมาถามจุดยืนตัวเอง และถามตัวเองอีกครั้งว่าทำไมเขาถึงรักศิลปะการต่อสู้ และเขาตัดสินใจท้าดวลกับบาร์ตันในฐานะ ผู้เชี่ยวชาญศิลปะการต่อสู้แบบจีน การประลองครั้งสุดท้ายระหว่างตะวันออกและตะวันตกกำลังจะเริ่มขึ้น และมันจะเป็นการต่อสู้เพื่อศักดิ์ศรีของวัฒนธรรมจีน เปลี่ยนความคิดต่อประเทศที่ทุกคนฝันถึงตลอดไป!

Complete name : [MINI Super-HQ]_Ip.Man.The.Finale.2019.1080p.BrRip.DTS.x264.One2loadup.com.mkv
Format : Matroska
Format version : Version 4
File size : 3.90 GiB
Duration : 1 h 45 min
Overall bit rate : 5 310 kb/s
Movie name : [MINI Super-HQ]_Ip.Man.The.Finale.2019.1080p.BrRip.DTS.x264.One2loadup.com
Encoded date : UTC 2010-02-22 21:41:31
Writing application : mkvmerge v5.9.0 (‘On The Loose’) built on Dec 9 2012 15:37:01
Writing library : libebml v1.3.0 + libmatroska v1.4.0

Video
ID : 1
Format : AVC
Format/Info : Advanced Video Codec
Format profile : [email protected]
Format settings : CABAC / 4 Ref Frames
Format settings, CABAC : Yes
Format settings, ReFrames : 4 frames
Codec ID : V_MPEG4/ISO/AVC
Duration : 1 h 45 min
Bit rate : 3 951 kb/s
Width : 1 920 pixels
Height : 804 pixels
Display aspect ratio : 2.40:1
Frame rate mode : Constant
Frame rate : 24.000 FPS
Color space : YUV
Chroma subsampling : 4:2:0
Bit depth : 8 bits
Scan type : Progressive
Bits/(Pixel*Frame) : 0.107
Stream size : 2.94 GiB (75%)
Title : [MINI Super-HQ]_Ip.Man.The.Finale.2019.1080p.BrRip.DTS.x264.One2loadup.com
Writing library : x264 core 146 r2538 121396c
Encoding settings : cabac=1 / ref=5 / deblock=1:-3:-3 / analyse=0x3:0x133 / me=tesa / subme=11 / psy=1 / psy_rd=1.00:0.15 / mixed_ref=1 / me_range=48 / chroma_me=1 / trellis=2 / 8x8dct=1 / cqm=0 / deadzone=21,11 / fast_pskip=1 / chroma_qp_offset=-3 / threads=54 / lookahead_threads=4 / sliced_threads=0 / nr=0 / decimate=1 / interlaced=0 / bluray_compat=1 / constrained_intra=0 / bframes=3 / b_pyramid=1 / b_adapt=2 / b_bias=0 / direct=3 / weightb=1 / open_gop=0 / weightp=1 / keyint=250 / keyint_min=1 / scenecut=40 / intra_refresh=0 / rc_lookahead=60 / rc=2pass / mbtree=1 / bitrate=3951 / ratetol=1.0 / qcomp=0.60 / qpmin=0 / qpmax=69 / qpstep=4 / cplxblur=20.0 / qblur=0.5 / ip_ratio=1.40 / aq=1:1.30
Language : Chinese
Default : Yes
Forced : No

Audio #1
ID : 2
Format : AC-3
Format/Info : Audio Coding 3
Commercial name : Dolby Digital
Codec ID : A_AC3
Duration : 1 h 45 min
Bit rate mode : Constant
Bit rate : 448 kb/s
Channel(s) : 6 channels
Channel layout : L R C LFE Ls Rs
Sampling rate : 48.0 kHz
Frame rate : 31.250 FPS (1536 SPF)
Bit depth : 16 bits
Compression mode : Lossy
Stream size : 337 MiB (8%)
Title : Thai DVD Master
Language : Thai
Service kind : Complete Main
Default : No
Forced : No

Audio #2
ID : 3
Format : DTS
Format/Info : Digital Theater Systems
Codec ID : A_DTS
Duration : 1 h 45 min
Bit rate mode : Constant
Bit rate : 755 kb/s
Channel(s) : 6 channels
Channel layout : C L R Ls Rs LFE
Sampling rate : 48.0 kHz
Frame rate : 93.750 FPS (512 SPF)
Bit depth : 24 bits
Compression mode : Lossy
Stream size : 568 MiB (14%)
Title : Chinese DTS
Language : Chinese
Default : No
Forced : No

Text #1
ID : 4
Format : VobSub
Codec ID : S_VOBSUB
Codec ID/Info : Picture based subtitle format used on DVDs
Title : Thai 720p
Language : Thai
Default : No
Forced : No

Text #2
ID : 5
Format : VobSub
Codec ID : S_VOBSUB
Codec ID/Info : Picture based subtitle format used on DVDs
Title : Thai 1080p
Language : Thai
Default : Yes
Forced : Yes

Text #3
ID : 6
Format : VobSub
Codec ID : S_VOBSUB
Codec ID/Info : Picture based subtitle format used on DVDs
Title : Thai 1080p Yellow
Language : Thai
Default : No
Forced : No

Text #4
ID : 7
Format : VobSub
Codec ID : S_VOBSUB
Codec ID/Info : Picture based subtitle format used on DVDs
Title : Thai 1080p Out
Language : Thai
Default : No
Forced : No

Text #5
ID : 8
Format : VobSub
Codec ID : S_VOBSUB
Codec ID/Info : Picture based subtitle format used on DVDs
Title : Thai 1080p BIG
Language : Thai
Default : No
Forced : No

Text #6
ID : 9
Format : VobSub
Codec ID : S_VOBSUB
Codec ID/Info : Picture based subtitle format used on DVDs
Title : Thai 1080p BIG
Language : Thai
Default : No
Forced : No

Text #7
ID : 10
Format : PGS
Codec ID : S_HDMV/PGS
Codec ID/Info : Picture based subtitle format used on BDs/HD-DVDs
Title : Thai PGS
Language : Thai
Default : No
Forced : No

Text #8
ID : 11
Format : PGS
Codec ID : S_HDMV/PGS
Codec ID/Info : Picture based subtitle format used on BDs/HD-DVDs
Title : Thai PGS Yellow
Language : Thai
Default : No
Forced : No

Text #9
ID : 12
Format : PGS
Codec ID : S_HDMV/PGS
Codec ID/Info : Picture based subtitle format used on BDs/HD-DVDs
Title : Thai PGS Out
Language : Thai
Default : No
Forced : No

Text #10
ID : 13
Format : PGS
Codec ID : S_HDMV/PGS
Codec ID/Info : Picture based subtitle format used on BDs/HD-DVDs
Title : English
Language : English
Default : No
Forced : No

DOWNLOAD


PART01 |||| PART02 |||| PART03 |||| PART04

PART01 |||| PART02 |||| PART03 |||| PART04

PART01 |||| PART02 |||| PART03 |||| PART04

PART01 |||| PART02 |||| PART03 |||| PART04

PART01 |||| PART02 |||| PART03 |||| PART04



Disable Comments
%d bloggers like this: