[MINI Super-HQ] Ip Man 3 (2015) ยิปมัน เจ้ากังฟูสู้ยิปตา ภาค 3 [1080p] [พากย์ไทย DTS + เสียงจีน DTS] [บรรยายไทย + อังกฤษ] [เสียงไทย + ซับไทย] [PANDAFILE]

2

โหลดหนัง Ip Man 3 (2015) ยิปมัน เจ้ากังฟูสู้ยิปตา ภาค 3

Ip Man 3 | December 24, 2015 (Hong Kong) Summary: When a band of brutal gangsters led by a crooked property developer make a play to take over a local school, Master Ip is forced to take a stand.
Countries: China, Hong KongLanguages: Cantonese, English

เรื่องย่อ Ip Man 3 (2015) ยิปมัน เจ้ากังฟูสู้ยิปตา ภาค 3

ในช่วงปลายยุค 1950 ยิปมัน (ดอนนี่ เยน) ได้ใช้ชีวิตอย่างสงบสุขกับภรรยาและลูกชาย แต่ไม่นานแก๊งอันธพาลนำโดย แฟรงค์ (ไมค์ ไทสัน) ชาวต่างชาติได้พยายามเข้ามายึดครองชุมชนแห่งนี้ ยิปมันจึงตัดสินใจนำลูกศิษย์ของเขาออกมาต่อสู้เพื่อปกป้องชุมชน

Complete name : [MINI Super-HQ]_3.Ip.Man.2015.1080p.BrRip.DTS.x264.One2loadup.com.mkv
Format : Matroska
Format version : Version 4
File size : 4.19 GiB
Duration : 1 h 44 min
Overall bit rate : 5 729 kb/s
Movie name : [MINI Super-HQ]_3.Ip.Man.2015.1080p.BrRip.DTS.x264.One2loadup.com
Encoded date : UTC 2016-05-12 08:55:42
Writing application : mkvmerge v8.9.0 (‘Father Daughter’) 32bit
Writing library : libebml v1.3.3 + libmatroska v1.4.4

Video
ID : 1
Format : AVC
Format/Info : Advanced Video Codec
Format profile : [email protected]
Format settings : CABAC / 4 Ref Frames
Format settings, CABAC : Yes
Format settings, ReFrames : 4 frames
Codec ID : V_MPEG4/ISO/AVC
Duration : 1 h 44 min
Bit rate : 4 133 kb/s
Width : 1 920 pixels
Height : 816 pixels
Display aspect ratio : 2.35:1
Frame rate mode : Constant
Frame rate : 24.000 FPS
Color space : YUV
Chroma subsampling : 4:2:0
Bit depth : 8 bits
Scan type : Progressive
Bits/(Pixel*Frame) : 0.110
Stream size : 3.00 GiB (72%)
Title : [MINI Super-HQ]_3.Ip.Man.2015.1080p.BrRip.DTS.x264.One2loadup.com
Writing library : x264 core 146 r2538 121396c
Encoding settings : cabac=1 / ref=4 / deblock=1:-3:-3 / analyse=0x3:0x113 / me=umh / subme=11 / psy=1 / psy_rd=1.00:0.00 / mixed_ref=1 / me_range=64 / chroma_me=1 / trellis=2 / 8x8dct=1 / cqm=0 / deadzone=21,11 / fast_pskip=1 / chroma_qp_offset=-2 / threads=24 / lookahead_threads=2 / sliced_threads=0 / nr=0 / decimate=1 / interlaced=0 / bluray_compat=0 / constrained_intra=0 / bframes=4 / b_pyramid=2 / b_adapt=1 / b_bias=0 / direct=1 / weightb=1 / open_gop=0 / weightp=2 / keyint=250 / keyint_min=23 / scenecut=40 / intra_refresh=0 / rc_lookahead=120 / rc=2pass / mbtree=1 / bitrate=4133 / ratetol=1.0 / qcomp=0.60 / qpmin=0 / qpmax=69 / qpstep=4 / cplxblur=20.0 / qblur=0.5 / vbv_maxrate=99999 / vbv_bufsize=99999 / nal_hrd=none / filler=0 / ip_ratio=1.40 / aq=1:1.00
Language : Chinese
Default : Yes
Forced : Yes

Audio #1
ID : 2
Format : DTS
Format/Info : Digital Theater Systems
Codec ID : A_DTS
Duration : 1 h 44 min
Bit rate mode : Constant
Bit rate : 755 kb/s
Channel(s) : 6 channels
Channel layout : C L R Ls Rs LFE
Sampling rate : 48.0 kHz
Frame rate : 93.750 FPS (512 SPF)
Bit depth : 24 bits
Compression mode : Lossy
Stream size : 565 MiB (13%)
Title : DTS BD MASTER
Language : Thai
Default : Yes
Forced : Yes

Audio #2
ID : 3
Format : DTS
Format/Info : Digital Theater Systems
Codec ID : A_DTS
Duration : 1 h 44 min
Bit rate mode : Constant
Bit rate : 755 kb/s
Channel(s) : 6 channels
Channel layout : C L R Ls Rs LFE
Sampling rate : 48.0 kHz
Frame rate : 93.750 FPS (512 SPF)
Bit depth : 24 bits
Compression mode : Lossy
Stream size : 565 MiB (13%)
Title : DTS
Language : Chinese
Default : No
Forced : No

Text #1
ID : 4
Format : VobSub
Codec ID : S_VOBSUB
Codec ID/Info : Picture based subtitle format used on DVDs
Title : 1080P BD MASTER
Language : Thai
Default : No
Forced : No

Text #2
ID : 5
Format : VobSub
Codec ID : S_VOBSUB
Codec ID/Info : Picture based subtitle format used on DVDs
Title : 1080P BD YELLOW
Language : Thai
Default : No
Forced : No

Text #3
ID : 6
Format : VobSub
Codec ID : S_VOBSUB
Codec ID/Info : Picture based subtitle format used on DVDs
Title : 1080P BD UNDER
Language : Thai
Default : No
Forced : No

Text #4
ID : 7
Format : VobSub
Codec ID : S_VOBSUB
Codec ID/Info : Picture based subtitle format used on DVDs
Title : 480P BD
Language : Thai
Default : No
Forced : No

Text #5
ID : 8
Format : UTF-8
Codec ID : S_TEXT/UTF8
Codec ID/Info : UTF-8 Plain Text
Title : SRT MASTER THAI AUDIO
Language : Thai
Default : No
Forced : No

Text #6
ID : 9
Format : PGS
Codec ID : S_HDMV/PGS
Codec ID/Info : Picture based subtitle format used on BDs/HD-DVDs
Title : BD MASTER
Language : Thai
Default : Yes
Forced : Yes

Text #7
ID : 10
Format : PGS
Codec ID : S_HDMV/PGS
Codec ID/Info : Picture based subtitle format used on BDs/HD-DVDs
Title : BD UNDER
Language : Thai
Default : No
Forced : No

Text #8
ID : 11
Format : PGS
Codec ID : S_HDMV/PGS
Codec ID/Info : Picture based subtitle format used on BDs/HD-DVDs
Title : BD MASTER
Language : English
Default : No
Forced : No

Menu
00:00:00.000 : en:Chapter 00
00:10:09.041 : en:Chapter 01
00:18:47.333 : en:Chapter 02
00:27:50.625 : en:Chapter 03
00:37:22.208 : en:Chapter 04
00:45:58.833 : en:Chapter 05
01:00:27.708 : en:Chapter 06
01:06:29.458 : en:Chapter 07
01:15:04.000 : en:Chapter 08
01:23:09.291 : en:Chapter 09
01:30:51.541 : en:Chapter 10
01:41:39.041 : en:Chapter 11

DOWNLOAD


PART01 |||| PART02 |||| PART03 |||| PART04 |||| PART05

PART01 |||| PART02 |||| PART03 |||| PART04 |||| PART05

PART01 |||| PART02 |||| PART03 |||| PART04 |||| PART05

PART01 |||| PART02 |||| PART03 |||| PART04 |||| PART05

PART01 |||| PART02 |||| PART03 |||| PART04 |||| PART05


2 Comments
  1. Vv Vood
    Vv Vood says

    วีดีโอในZolofileเปิดเล่นได้แต่ไม่มีเสียงครับแก้ไขหน่อยครับ

    1. Admin
      Admin says

      แนะนำใช้โปรแกรม VLC ในการเปิดฮ๊ะ

Leave A Reply

อีเมล์ของคุณจะไม่แสดงให้เห็น Your email address will not be published.

%d bloggers like this: