[MINI Super-HQ] In the Mood for Love (2000) ห้วงรักอารมณ์เสน่หา [1080p] [พากย์ไทย 5.0 + เสียงจีน DTS] [บรรยายไทย + อังกฤษ] [เสียงไทย + ซับไทย] [DOSYAUPLOAD]

0

โหลดหนัง In the Mood for Love (2000) ห้วงรักอารมณ์เสน่หา

In the Mood for Love | March 9, 2001 (United States) Summary: Two neighbors form a strong bond after both suspect extramarital activities of their spouses. However, they agree to keep their bond platonic so as not to commit similar wrongs.
Countries: Hong Kong, FranceLanguages: Cantonese, Shanghainese, French, Spanish

เรื่องย่อ In the Mood for Love (2000) ห้วงรักอารมณ์เสน่หา

โจวเหวินกับซูหนุ่มสาวที่มีรักแท้ต่อกัน แต่มิอาจครองคู่ร่วมภิรมย์กันได้ ด้วยทั้งสองนั้นต่างก็มีครอบครัวอยู่แล้ว แต่ด้วยเหตุว่าภรรยาของโจวเหวินและสามีของซูต่างลอบเป็นชู้กัน ความปวดร้าวนั้นทำให้ทั้งโจวเหวินและซูเกิดเห็นอกเห็ นใจกันจนกลายเป็นสายใยรักที่ผูกพันกันอย่างลึกซึ้ง แม้ความรักจะมหาศาลเพียงใด แต่ทั้งสองก็หาได้ทำนอกลู่นอกทางไม่ โจวเหวินจำต้องจากซูไปอยู่สิงคโปร์ ซึ่งเป็นการจากที่อาจต้องพรากกันไปตลอดชีวิต หรือว่าฟ้าประสงค์ให้เป็นเช่นนั้น!

Complete name : [MINI Super-HQ]_In.The.Mood.For.Love.2000.1080p.BrRip.DTS.x264.One2loadup.com.mkv
Format : Matroska
Format version : Version 2
File size : 3.96 GiB
Duration : 1 h 39 min
Overall bit rate : 5 711 kb/s
Movie name : [MINI Super-HQ]_In.The.Mood.For.Love.2000.1080p.BrRip.DTS.x264.One2loadup.com
Encoded date : UTC 2017-05-15 16:08:50
Writing application : mkvmerge v5.8.0 (‘No Sleep / Pillow’) built on Sep 2 2012 15:37:04
Writing library : libebml v1.2.3 + libmatroska v1.3.0

Video
ID : 1
Format : AVC
Format/Info : Advanced Video Codec
Format profile : [email protected]
Format settings : CABAC / 4 Ref Frames
Format settings, CABAC : Yes
Format settings, ReFrames : 4 frames
Codec ID : V_MPEG4/ISO/AVC
Duration : 1 h 39 min
Bit rate : 4 508 kb/s
Width : 1 792 pixels
Height : 1 072 pixels
Display aspect ratio : 5:3
Frame rate mode : Constant
Frame rate : 23.976 FPS
Color space : YUV
Chroma subsampling : 4:2:0
Bit depth : 8 bits
Scan type : Progressive
Bits/(Pixel*Frame) : 0.098
Stream size : 3.04 GiB (77%)
Title : [MINI Super-HQ]_In.The.Mood.For.Love.2000.1080p.BrRip.DTS.x264.One2loadup.com
Writing library : x264 core 146 r2538 121396c
Encoding settings : cabac=1 / ref=4 / deblock=1:0:0 / analyse=0x3:0x113 / me=umh / subme=10 / psy=1 / psy_rd=1.00:0.15 / mixed_ref=1 / me_range=48 / chroma_me=1 / trellis=2 / 8x8dct=1 / cqm=0 / deadzone=21,11 / fast_pskip=0 / chroma_qp_offset=-3 / threads=12 / lookahead_threads=1 / sliced_threads=0 / nr=0 / decimate=1 / interlaced=0 / bluray_compat=0 / constrained_intra=0 / bframes=4 / b_pyramid=2 / b_adapt=2 / b_bias=0 / direct=3 / weightb=1 / open_gop=0 / weightp=2 / keyint=250 / keyint_min=23 / scenecut=40 / intra_refresh=0 / rc_lookahead=40 / rc=2pass / mbtree=1 / bitrate=4508 / ratetol=1.0 / qcomp=0.60 / qpmin=0 / qpmax=69 / qpstep=4 / cplxblur=20.0 / qblur=0.5 / vbv_maxrate=14000 / vbv_bufsize=14000 / nal_hrd=none / filler=0 / ip_ratio=1.40 / aq=1:0.90
Language : Chinese
Default : Yes
Forced : Yes

Audio #1
ID : 2
Format : AC-3
Format/Info : Audio Coding 3
Commercial name : Dolby Digital
Codec ID : A_AC3
Duration : 1 h 39 min
Bit rate mode : Constant
Bit rate : 448 kb/s
Channel(s) : 5 channels
Channel layout : L R C Ls Rs
Sampling rate : 48.0 kHz
Frame rate : 31.250 FPS (1536 SPF)
Bit depth : 16 bits
Compression mode : Lossy
Delay relative to video : 18 s 0 ms
Stream size : 318 MiB (8%)
Title : THAI DVD 5.0 @ 448 Kbps
Language : Thai
Service kind : Complete Main
Default : Yes
Forced : Yes

Audio #2
ID : 3
Format : DTS
Format/Info : Digital Theater Systems
Codec ID : A_DTS
Duration : 1 h 39 min
Bit rate mode : Constant
Bit rate : 755 kb/s
Channel(s) : 6 channels
Channel layout : C L R Ls Rs LFE
Sampling rate : 48.0 kHz
Frame rate : 93.750 FPS (512 SPF)
Bit depth : 24 bits
Compression mode : Lossy
Stream size : 535 MiB (13%)
Title : Chinese DTS 5.1 @ 755 Kbps
Language : Chinese
Default : No
Forced : No

Text #1
ID : 4
Format : VobSub
Codec ID : S_VOBSUB
Codec ID/Info : Picture based subtitle format used on DVDs
Title : THAI 480p DVD Master
Language : Thai
Default : No
Forced : No

Text #2
ID : 5
Format : VobSub
Codec ID : S_VOBSUB
Codec ID/Info : Picture based subtitle format used on DVDs
Title : THAI 1080p
Language : Thai
Default : Yes
Forced : Yes

Text #3
ID : 6
Format : VobSub
Codec ID : S_VOBSUB
Codec ID/Info : Picture based subtitle format used on DVDs
Title : THAI 1080p Yellow
Language : Thai
Default : No
Forced : No

Text #4
ID : 7
Format : PGS
Codec ID : S_HDMV/PGS
Codec ID/Info : Picture based subtitle format used on BDs/HD-DVDs
Title : THAI PGS 1080p
Language : Thai
Default : No
Forced : No

Text #5
ID : 8
Format : UTF-8
Codec ID : S_TEXT/UTF8
Codec ID/Info : UTF-8 Plain Text
Title : ENG SRT
Language : English
Default : No
Forced : No

DOWNLOAD


PART01 |||| PART02 |||| PART03 |||| PART04 |||| PART05

PART01 |||| PART02 |||| PART03 |||| PART04 |||| PART05

PART01 |||| PART02 |||| PART03 |||| PART04 |||| PART05

PART01 |||| PART02 |||| PART03 |||| PART04 |||| PART05

PART01 |||| PART02 |||| PART03 |||| PART04 |||| PART05


Leave A Reply

อีเมล์ของคุณจะไม่แสดงให้เห็น Your email address will not be published.

%d bloggers like this: