[MINI Super-HQ] In the Heart of the Sea (2015) หัวใจเพชฌฆาตวาฬมหาสมุทร [1080p] [พากย์ไทย DTS + เสียงอังกฤษ DTS] [บรรยายไทย + อังกฤษ] [เสียงไทย + ซับไทย] [DOSYAUPLOAD]

0

โหลดหนัง In the Heart of the Sea (2015) หัวใจเพชฌฆาตวาฬมหาสมุทร

In the Heart of the Sea (2015) 122min | Action, Adventure, Biography | 11 December 2015 (USA) Summary: A recounting of a New England whaling ship's sinking by a giant whale in 1820, an experience that later inspired the great novel Moby-Dick.
Countries: USA, Australia, SpainLanguages: English

เรื่องย่อ In the Heart of the Sea (2015) หัวใจเพชฌฆาตวาฬมหาสมุทร

เป็นเรื่องราวช่วงฤดูหนาวปี 1820 เรือล่าปลาวาฬของนิวอิงแลนด์ที่ชื่อ Essex ถูกโจมตีจากสิ่งที่ไม่มีใครอยากเชื่ออย่างปลาวาฬที่มีขนาดใหญ่ยักษ์ซึ่งมนุษย์สัมผัสได้ถึงพลังแห่งการล้างแค้นเรื่องจริงของภัยพิบัติทางทะเลได้เป็นแรงบันดาลใจให้กับเรื่อง Moby Dick ของเฮอร์แมน เมลวิล แต่นั่นเป็นเรื่องราวเพียงครึ่งเดียวเท่านั้นภาพยนตร์เรื่อง In the Heart of the Sea ถ่ายทอดถึงเรื่องราวที่เกิดขึ้นหลังจากลูกเรือผู้รอดชีวิตพยายามทำทุกอย่างสุดกำลังเพื่อการเอาชีวิตรอดจากพายุที่โหมกระหน่ำ ความหิวโหย ความหวาดกลัวและความสิ้นหวัง ทุกคนต่างเกิดข้อสงสัยในความศรัทธาของตัวเองที่มีอยู่ลึกๆตั้งแต่คุณค่าของชีวิตไปจนถึงจริยธรรมแห่งการค้าเมื่อกัปตันเรือของพวกเขาค้นหาเส้นทางบนทะเลเปิด และต้นหนเรือยังคงหาทางปราบปลาวาฬยักษ์!!!

Complete name : [MINI Super-HQ]_In.the.Heart.of.the.Sea.2015.1080p.BrRip.DTS.x264.One2loadup.com.mkv
Format : Matroska
Format version : Version 4
File size : 4.27 GiB
Duration : 2 h 1 min
Overall bit rate : 5 021 kb/s
Movie name : [MINI Super-HQ]_In.the.Heart.of.the.Sea.2015.1080p.BrRip.DTS.x264.One2loadup.com
Encoded date : UTC 2016-02-25 13:07:37
Writing application : mkvmerge v8.9.0 (‘Father Daughter’) 64bit
Writing library : libebml v1.3.3 + libmatroska v1.4.4

Video
ID : 1
Format : AVC
Format/Info : Advanced Video Codec
Format profile : [email protected]
Format settings : CABAC / 4 Ref Frames
Format settings, CABAC : Yes
Format settings, ReFrames : 4 frames
Codec ID : V_MPEG4/ISO/AVC
Duration : 2 h 1 min
Bit rate : 3 395 kb/s
Width : 1 920 pixels
Height : 1 080 pixels
Display aspect ratio : 16:9
Frame rate mode : Constant
Frame rate : 23.976 (23976/1000) FPS
Color space : YUV
Chroma subsampling : 4:2:0
Bit depth : 8 bits
Scan type : Progressive
Bits/(Pixel*Frame) : 0.068
Stream size : 2.88 GiB (67%)
Title : [MINI Super-HQ]_In.the.Heart.of.the.Sea.2015.1080p.BrRip.DTS.x264.One2loadup.com
Writing library : x264 core 146 r2538 121396c
Encoding settings : cabac=1 / ref=4 / deblock=1:-3:-3 / analyse=0x3:0x113 / me=umh / subme=11 / psy=1 / psy_rd=1.00:0.00 / mixed_ref=1 / me_range=64 / chroma_me=1 / trellis=2 / 8x8dct=1 / cqm=0 / deadzone=21,11 / fast_pskip=1 / chroma_qp_offset=-2 / threads=24 / lookahead_threads=2 / sliced_threads=0 / nr=0 / decimate=1 / interlaced=0 / bluray_compat=0 / constrained_intra=0 / bframes=4 / b_pyramid=2 / b_adapt=1 / b_bias=0 / direct=1 / weightb=1 / open_gop=0 / weightp=1 / keyint=250 / keyint_min=23 / scenecut=40 / intra_refresh=0 / rc_lookahead=120 / rc=2pass / mbtree=1 / bitrate=3395 / ratetol=1.0 / qcomp=0.60 / qpmin=0 / qpmax=69 / qpstep=4 / cplxblur=20.0 / qblur=0.5 / vbv_maxrate=99999 / vbv_bufsize=99999 / nal_hrd=none / filler=0 / ip_ratio=1.40 / aq=1:1.00
Language : English
Default : Yes
Forced : No

Audio #1
ID : 2
Format : DTS
Format/Info : Digital Theater Systems
Codec ID : A_DTS
Duration : 2 h 1 min
Bit rate mode : Constant
Bit rate : 768 kb/s
Channel(s) : 6 channels
Channel layout : C L R Ls Rs LFE
Sampling rate : 48.0 kHz
Frame rate : 93.750 FPS (512 SPF)
Bit depth : 24 bits
Compression mode : Lossy
Stream size : 669 MiB (15%)
Title : DTS MIXED FROM BDMASTER
Language : Thai
Default : Yes
Forced : Yes

Audio #2
ID : 3
Format : DTS
Format/Info : Digital Theater Systems
Codec ID : A_DTS
Duration : 2 h 1 min
Bit rate mode : Constant
Bit rate : 768 kb/s
Channel(s) : 6 channels
Channel layout : C L R Ls Rs LFE
Sampling rate : 48.0 kHz
Frame rate : 93.750 FPS (512 SPF)
Bit depth : 24 bits
Compression mode : Lossy
Stream size : 669 MiB (15%)
Title : DTS
Language : English
Default : No
Forced : No

Text #1
ID : 4
Format : VobSub
Codec ID : S_VOBSUB
Codec ID/Info : Picture based subtitle format used on DVDs
Title : 1080P FOCED BD MASTER
Language : Thai
Default : No
Forced : No

Text #2
ID : 5
Format : VobSub
Codec ID : S_VOBSUB
Codec ID/Info : Picture based subtitle format used on DVDs
Title : 1080P BD MASTER
Language : Thai
Default : No
Forced : No

Text #3
ID : 6
Format : VobSub
Codec ID : S_VOBSUB
Codec ID/Info : Picture based subtitle format used on DVDs
Title : 1080P BD YELLOW
Language : Thai
Default : No
Forced : No

Text #4
ID : 7
Format : VobSub
Codec ID : S_VOBSUB
Codec ID/Info : Picture based subtitle format used on DVDs
Title : 1080P BD UNDER
Language : Thai
Default : No
Forced : No

Text #5
ID : 8
Format : VobSub
Codec ID : S_VOBSUB
Codec ID/Info : Picture based subtitle format used on DVDs
Title : 480P BD MASTER
Language : Thai
Default : No
Forced : No

Text #6
ID : 9
Format : VobSub
Codec ID : S_VOBSUB
Codec ID/Info : Picture based subtitle format used on DVDs
Title : 1080P BD MASTER
Language : English
Default : No
Forced : No

Text #7
ID : 10
Format : PGS
Codec ID : S_HDMV/PGS
Codec ID/Info : Picture based subtitle format used on BDs/HD-DVDs
Title : FORCED BD MASTER
Language : Thai
Default : Yes
Forced : Yes

Text #8
ID : 11
Format : PGS
Codec ID : S_HDMV/PGS
Codec ID/Info : Picture based subtitle format used on BDs/HD-DVDs
Title : BD MASTER
Language : Thai
Default : No
Forced : No

Text #9
ID : 12
Format : PGS
Codec ID : S_HDMV/PGS
Codec ID/Info : Picture based subtitle format used on BDs/HD-DVDs
Title : BD UNDER
Language : Thai
Default : No
Forced : No

Menu
00:00:00.000 : en:00:00:00.000
00:12:07.518 : en:00:12:07.518
00:21:19.737 : en:00:21:19.737
00:33:31.968 : en:00:33:31.968
00:42:37.013 : en:00:42:37.013
00:51:32.715 : en:00:51:32.715
01:06:45.835 : en:01:06:45.835
01:13:14.015 : en:01:13:14.015
01:23:23.290 : en:01:23:23.290
01:33:47.872 : en:01:33:47.872
01:43:22.029 : en:01:43:22.029
01:53:00.774 : en:01:53:00.774

DOWNLOAD


PART01 |||| PART02 |||| PART03 |||| PART04 |||| PART05

PART01 |||| PART02 |||| PART03 |||| PART04 |||| PART05

PART01 |||| PART02 |||| PART03 |||| PART04 |||| PART05

PART01 |||| PART02 |||| PART03 |||| PART04 |||| PART05

PART01 |||| PART02 |||| PART03 |||| PART04 |||| PART05


Leave A Reply

Your email address will not be published.

%d bloggers like this: