[MINI Super-HQ] I Care a Lot (2021) ห่วง… แต่หวังฮุบ [1080p] [NETFLIX] [พากย์ไทย 5.1 + เสียงอังกฤษ 5.1] [บรรยายไทย + อังกฤษ] [เสียงไทย + ซับไทย] [DOSYAUPLOAD]

0

โหลดหนัง I Care a Lot (2021) ห่วง… แต่หวังฮุบ

I Care a Lot (2020) 118min | Comedy, Crime, Thriller | 19 February 2021 (USA) Summary: A crooked legal guardian who drains the savings of her elderly wards meets her match when a woman she tries to swindle turns out to be more than she first appears.
Countries: USA, UKLanguages: English

เรื่องย่อ I Care a Lot (2021) ห่วง… แต่หวังฮุบ

ผู้ดูแลตามกฎหมายที่ศาลจัดหาหลอกยักยอกทรัพย์สินจากลูกความวัยชราจนติดอยู่ใต้การดูแลของเธอแต่เป้าหมายรายสุดท้ายกลับมีไม้เด็ดที่คาดไม่ถึง

Complete name : [MINI Super-HQ]_I.Care.a.Lot.2021.1080p.NF.WEB-DL.EAC3.x264.One2loadup.com.mkv
Format : Matroska
Format version : Version 4
File size : 5.20 GiB
Duration : 1 h 59 min
Overall bit rate : 6 240 kb/s
Movie name : [MINI Super-HQ]_I.Care.a.Lot.2021.1080p.NF.WEB-DL.EAC3.x264.One2loadup.com
Encoded date : UTC 2021-02-20 12:21:03
Writing application : mkvmerge v53.0.0 (‘Fool’s Gold’) 64-bit
Writing library : libebml v1.4.1 + libmatroska v1.6.2

Video
ID : 1
Format : AVC
Format/Info : Advanced Video Codec
Format profile : [email protected]
Format settings : CABAC / 3 Ref Frames
Format settings, CABAC : Yes
Format settings, ReFrames : 3 frames
Codec ID : V_MPEG4/ISO/AVC
Duration : 1 h 59 min
Bit rate : 4 879 kb/s
Width : 1 920 pixels
Height : 800 pixels
Display aspect ratio : 2.40:1
Frame rate mode : Constant
Frame rate : 24.000 FPS
Color space : YUV
Chroma subsampling : 4:2:0
Bit depth : 8 bits
Scan type : Progressive
Bits/(Pixel*Frame) : 0.132
Stream size : 4.07 GiB (78%)
Title : [MINI Super-HQ]_I.Care.a.Lot.2021.1080p.NF.WEB-DL.EAC3.x264.One2loadup.com
Language : English
Default : Yes
Forced : No

Audio #1
ID : 2
Format : E-AC-3
Format/Info : Enhanced AC-3
Commercial name : Dolby Digital Plus
Codec ID : A_EAC3
Duration : 1 h 59 min
Bit rate mode : Constant
Bit rate : 640 kb/s
Channel(s) : 6 channels
Channel layout : L R C LFE Ls Rs
Sampling rate : 48.0 kHz
Frame rate : 31.250 FPS (1536 SPF)
Compression mode : Lossy
Stream size : 547 MiB (10%)
Title : E-AC3 English
Language : English
Service kind : Complete Main
Default : Yes
Forced : No

Audio #2
ID : 3
Format : E-AC-3
Format/Info : Enhanced AC-3
Commercial name : Dolby Digital Plus
Codec ID : A_EAC3
Duration : 1 h 59 min
Bit rate mode : Constant
Bit rate : 640 kb/s
Channel(s) : 6 channels
Channel layout : L R C LFE Ls Rs
Sampling rate : 48.0 kHz
Frame rate : 31.250 FPS (1536 SPF)
Compression mode : Lossy
Stream size : 547 MiB (10%)
Title : E-AC3 Thai
Language : Thai
Service kind : Complete Main
Default : No
Forced : No

Text #1
ID : 4
Format : VobSub
Muxing mode : zlib
Codec ID : S_VOBSUB
Codec ID/Info : Picture based subtitle format used on DVDs
Duration : 1 h 57 min
Bit rate : 10.8 kb/s
Count of elements : 1313
Stream size : 9.09 MiB (0%)
Title : Sub Thai 1080p
Language : Thai
Default : No
Forced : No

Text #2
ID : 5
Format : UTF-8
Codec ID : S_TEXT/UTF8
Codec ID/Info : UTF-8 Plain Text
Duration : 1 h 57 min
Bit rate : 112 b/s
Count of elements : 1313
Stream size : 96.5 KiB (0%)
Title : Sub Thai SRT
Language : Thai
Default : No
Forced : No

Text #3
ID : 6
Format : PGS
Muxing mode : zlib
Codec ID : S_HDMV/PGS
Codec ID/Info : Picture based subtitle format used on BDs/HD-DVDs
Duration : 1 h 57 min
Bit rate : 32.1 kb/s
Count of elements : 2626
Stream size : 27.0 MiB (1%)
Title : Sub Thai PGS
Language : Thai
Default : No
Forced : No

Text #4
ID : 7
Format : PGS
Muxing mode : zlib
Codec ID : S_HDMV/PGS
Codec ID/Info : Picture based subtitle format used on BDs/HD-DVDs
Duration : 1 h 57 min
Bit rate : 53.5 kb/s
Count of elements : 2626
Stream size : 44.9 MiB (1%)
Title : Sub Thai PGS NETFLIX
Language : Thai
Default : Yes
Forced : No

Text #5
ID : 8
Format : VobSub
Muxing mode : zlib
Codec ID : S_VOBSUB
Codec ID/Info : Picture based subtitle format used on DVDs
Duration : 1 h 54 min
Bit rate : 12.1 kb/s
Count of elements : 1480
Stream size : 9.97 MiB (0%)
Title : Sub English 1080p
Language : English
Default : No
Forced : No

Text #6
ID : 9
Format : UTF-8
Codec ID : S_TEXT/UTF8
Codec ID/Info : UTF-8 Plain Text
Duration : 1 h 54 min
Bit rate : 55 b/s
Count of elements : 1480
Stream size : 46.6 KiB (0%)
Title : Sub English SRT
Language : English
Default : No
Forced : No

Text #7
ID : 10
Format : PGS
Muxing mode : zlib
Codec ID : S_HDMV/PGS
Codec ID/Info : Picture based subtitle format used on BDs/HD-DVDs
Duration : 1 h 54 min
Bit rate : 33.2 kb/s
Count of elements : 2960
Stream size : 27.3 MiB (1%)
Title : Sub English PGS
Language : English
Default : No
Forced : No

DOWNLOAD


PART01 |||| PART02 |||| PART03 |||| PART04 |||| PART05 |||| PART06

PART01 |||| PART02 |||| PART03 |||| PART04 |||| PART05 |||| PART06

PART01 |||| PART02 |||| PART03 |||| PART04 |||| PART05 |||| PART06

PART01 |||| PART02 |||| PART03 |||| PART04 |||| PART05 |||| PART06

PART01 |||| PART02 |||| PART03 |||| PART04 |||| PART05 |||| PART06


Leave A Reply

Your email address will not be published.

%d bloggers like this: